Our friends

Bon.Jovi.Keep.The.Faith.an evening with.[MPGE].[Xvid].[english].[www.lokotorrent.com].by.botello.avi torrent

Torrent info

Date 2012-01-18 00:45:23
Category Movies
Hash 91565724631dac254ddcedccc1300b25f20fe509
Seeds / Leechs -1 / -1 refresh
Full size 690 MB
Tracker http://tracker.openbittorrent.com/scrape
Tags jovi keep faith evening with mpge xvid english lokotorrent botello

Related torrents

TMPGEnc 4 0 XPress + DVD Author 3 with DivX Authoring (English Retail)
BBC Walking With Monsters XviD AC3 avi
Bon Jovi - Keep The Faith
[ www.Torrenting.com ] - My.Dying.Bride.An.Evening.With.The.Bride.2012.DVDRip.XviD-FiCO

Bon Jovi: The Circle Tour overview

Description

The film was shot during four concerts in the group's home state New Jersey, at the new stadium New Meadowlands Stadium in East Rutherford, 26, 27 and 29 May and 9 July 2010. Tour «The Circle World Tour» began after the release in November 2009, eleventh studio album «The Circle», which quickly came to the first line of the chart top 200 of magazine Billboard - of the most popular and highest selling music albums and mini albums in the U.S. In the movie «Bon Jovi - The Circle Tour» you will see and hear the performance of songs from the album «The Circle» and most popular hits. Premiere of the film is also dedicated to the production of the album «Bon Jovi - Greatest Hits Collection».

Torrent's content info

Bon.Jovi.Keep.The.Faith.an evening with.[MPGE].[Xvid].[english].[www.lokotorrent.com].by.botello.avi

Bon.Jovi.Keep.The.Faith.an evening with.[MPGE].[Xvid].[english].[www.lokotorrent.com].by.botello.avi screenshot
  • Screenshot 1
  • Screenshot 2
  • Screenshot 3
  • Screenshot 4
  • Screenshot 5
  • Screenshot 6
  • Screenshot 7
  • Screenshot 8
  • Screenshot 9

Duration: 01:24:06.16, start: 0.000000, bitrate: 1146 kb/s
Stream #0.0: Video: mpeg4, yuv420p, 528x400 [PAR 1:1 DAR 33:25], 25 fps, 25 tbr, 25 tbn, 25 tbc
Stream #0.1: Audio: mp3, 48000 Hz, 2 channels, s16, 128 kb/s

Check the movie's sound/language:

Contents of download:

690 megabyte in 1 files
Bon.Jovi.Keep.The.Faith.an evening with.[MPGE].[Xvid].[english].[www.lokotorrent.com].by.botello.avi
  • Bon.Jovi.Keep.The.Faith.an evening with.[MPGE].[Xvid].[english].[www.lokotorrent.com].by.botello.avi (690 MB)

Comments:


Add report or comment (250 words maximum)

I'd like:  
Type text from captcha: