Our friends

Man Woman Wild S02E12 HDTV XviD-NMBSTV torrent

Torrent info

Date 2012-01-20 11:47:12
Category Series/TV Shows
Hash f7ecfc557eeb8a9b8c3b3f11c6d6c16d1f2067ce
Seeds / Leechs -1 / -1 refresh
Full size 358 MB
Tracker http://tracker.thepiratebay.org/announce
Tags woman wild s02e12 hdtv xvid nmbstv
Download – Man Woman Wild S02E12 HDTV XviD-NMBSTV Download direct – no client needed

Related torrents

Terminator.The.Sarah.Connor.Chronicles.S02E12.HDTV.XviD-NoTV.[VT
Californication S02E12 HDTV XviD { www Speed cd }
Sophie S02E12 HDTV XviD-2HD (eztv)
Burn Notice S02E12 HDTV XviD-0TV avi (267S/238L)

The Woman (2011) overview

Genre: horror Director: McKee, Lucky

Description

A successful lawyer and an exemplary family man, Chris finds in the forest, feral cannibal. Track down her, he brings a savage to his home and shackle in the cellar, deciding to make a civilized woman from cannibal. Chris convinces his wife and children to keep this in a secret, but soon his behavior changed dramatically, and the situation is completely out of control. Technically the film is very strong, pleasantly devoid of excess moments, every scene as the first half of the film is informative, not leaving any question on the motivation of the characters in the second half. "The Woman" - this is the second film, showing the cruelty of civilized people. There is also a "child" of the same movie- the first film where the action takes place in the wild forest with the savages.

Torrent's content info

man.woman.wild.s02e12.hdtv.xvid-nmbstv.avi

Man Woman Wild S02E12 HDTV XviD-NMBSTV screenshot
  • Screenshot 1
  • Screenshot 2
  • Screenshot 3
  • Screenshot 4
  • Screenshot 5
  • Screenshot 6
  • Screenshot 7
  • Screenshot 8
  • Screenshot 9

Duration: 00:42:32.57, start: 0.000000, bitrate: 1147 kb/s
Stream #0.0: Video: mpeg4, yuv420p, 624x352 [PAR 1:1 DAR 39:22], 29.97 tbr, 29.97 tbn, 29.98 tbc
Stream #0.1: Audio: mp3, 48000 Hz, 2 channels, s16, 128 kb/s

Check the movie's sound/language:

Text sample Text sample from www.Torrentday.com.txt

www.TorrentDay.com - is the Place you should be!!!!!!!!!!!!!!!!!

we are the most on-time tracker around the globe, You can download releases whenever they release out by group of uploaders.

no Wait Time, no Virus, Very Fast Download Speed.

Visit us at http://www.torrentday.com


Support Torrentday.com to grow faster :)


Thank you =)

http://www.Torrentday.com


www.TorrentDay.com
www.TorrentDay.com
www.TorrentDay.com
www.TorrentDay.com




Text sample Text sample from man.woman.wild.s02e12.hdtv.xvid-nmbstv.nfo

_| _| _| _| _|_|_| _|_|_| _|_|_|_|_| _| _|
_|_| _| _|_| _|_| _| _| _| _| _| _|
_| _| _| _| _| _| _|_|_| _|_| _| _| _|
_| _|_| _| _| _| _| _| _| _| _|
_| _| _| _| _|_|_| _|_|_| _| _|

Who is NMBSTV? Stay tuned to find out .....................



Release name: Man.Woman.Wild.S02E12.HDTV.XviD-NMBSTV
Show Title: Man Woman Wild
Source: HDTV
Resolution: 624x352
Release Date: Jan/20/2012
We are looking for a few EU sites if you have one and would like our company email us at nmbstv@hush.com




Text sample Text sample from First Read This Guide.txt

www.TorrentDay.com - is the Place you should be!!!!!!!!!!!!!!!!!

we are the most on-time tracker around the globe, You can download releases whenever they release out by group of uploaders.

no Wait Time, no Virus, Very Fast Download Speed.

Visit us at http://www.torrentday.com


Support Torrentday.com to grow faster :)


Thank you =)

http://www.Torrentday.com


www.TorrentDay.com
www.TorrentDay.com
www.TorrentDay.com
www.TorrentDay.com




Contents of download:

358 megabyte in 5 files
Man Woman Wild S02E12 HDTV XviD-NMBSTV
  • [ www.TorrentDay.com ] - Man.Woman.Wild.S02E12.HDTV.XviD-NMBSTV/First Read This Guide.txt (0.5 KB)
  • [ www.TorrentDay.com ] - Man.Woman.Wild.S02E12.HDTV.XviD-NMBSTV/man.woman.wild.s02e12.hdtv.xvid-nmbstv.avi (349 MB)
  • [ www.TorrentDay.com ] - Man.Woman.Wild.S02E12.HDTV.XviD-NMBSTV/man.woman.wild.s02e12.hdtv.xvid-nmbstv.nfo (0.8 KB)
  • [ www.TorrentDay.com ] - Man.Woman.Wild.S02E12.HDTV.XviD-NMBSTV/Sample/sample-man.woman.wild.s02e12.hdtv.xvid-nmbstv.avi (9 MB)
  • [ www.TorrentDay.com ] - Man.Woman.Wild.S02E12.HDTV.XviD-NMBSTV/www.Torrentday.com.txt (0.5 KB)

Comments:


Add report or comment (250 words maximum)

I'd like:  
Type text from captcha: