Our friends

Don Omar Presenta - El Orfanato - Reggaeton - 2008 - BigGod torrent

Torrent info

Date 2012-01-23 12:46:19
Category Music
Hash f7bb7a26b650fc53441a790ffbb9c64243ba9946
Seeds / Leechs -1 / -1 refresh
Full size 47 MB
Tracker http://tracker.publicbt.com/scrape
Tags omar presenta orfanato reggaeton 2008 biggod

Related torrents

Los Mas Buscados Reggaeton 2008 [www torrentspain com]
Lo Mas Sonado Del Reggaeton (2008) WwW LanzamientosMp3 es & Mixermusic net rar
Bob Sinclar - Remixed - 2008 - BigGod
Pow3rSound Presenta Los Exitos 2008 (Reggaeton Series) WwW Mixermusic net

Torrent's content info

20 seconds audio samples

03. Todo Lo Que Soy (Don Omar Ft. Marcy Place)_sample.mp3
Audio file info Duration: 00:03:47.94, start: 0.000000, bitrate: 127 kb/s
Stream #0.0: Audio: mp3, 44100 Hz, 2 channels, s16, 128 kb/s
13. Run The Show (Don Omar Ft. Kat Deluna)_sample.mp3
Audio file info Duration: 00:03:36.06, start: 0.000000, bitrate: 127 kb/s
Stream #0.0: Audio: mp3, 44100 Hz, 2 channels, s16, 128 kb/s
05. Cynderella (Umbrella Remix) (Cynthia Antigua)_sample.mp3
Audio file info Duration: 00:04:28.20, start: 0.000000, bitrate: 128 kb/s
Stream #0.0: Audio: mp3, 22050 Hz, 2 channels, s16, 128 kb/s
10. Entrevista El Orfanato Parte 3.com_sample.mp3
Audio file info Duration: 00:04:07.28, start: 0.000000, bitrate: 128 kb/s
Stream #0.0: Audio: mp3, 44100 Hz, 2 channels, s16, 128 kb/s

Contents of download:

47 megabyte in 16 files
Don Omar Presenta - El Orfanato - Reggaeton - 2008 - BigGod
  • Don Omar Presenta - El Orfanato - Reggaeton - 2008 - BigGod/01. Me Muero (Official Remix) (Don Omar Ft. Jadiel ''El Incomparable'' & Marcy Place).mp3 (3.2 MB)
  • Don Omar Presenta - El Orfanato - Reggaeton - 2008 - BigGod/02. Entrevista El Orfanato Parte 1.mp3 (2.6 MB)
  • Don Omar Presenta - El Orfanato - Reggaeton - 2008 - BigGod/03. Todo Lo Que Soy (Don Omar Ft. Marcy Place).mp3 (3.5 MB)
  • Don Omar Presenta - El Orfanato - Reggaeton - 2008 - BigGod/04. Isla Bonita (Don Omar Ft. Rello & Cyntia Antigua).mp3 (3.6 MB)
  • Don Omar Presenta - El Orfanato - Reggaeton - 2008 - BigGod/05. Cynderella (Umbrella Remix) (Cynthia Antigua).mp3 (4.1 MB)
  • Don Omar Presenta - El Orfanato - Reggaeton - 2008 - BigGod/06. Entrevista El Orfanato Parte 2.mp3 (2.4 MB)
  • Don Omar Presenta - El Orfanato - Reggaeton - 2008 - BigGod/07. Canción De Amor ( Don Omar).mp3 (3.8 MB)
  • Don Omar Presenta - El Orfanato - Reggaeton - 2008 - BigGod/08. El Cantante (Don Omar Ft. Hector Lavoe).mp3 (4.5 MB)
  • Don Omar Presenta - El Orfanato - Reggaeton - 2008 - BigGod/09. Wanna Love You (Oficial Rmx) Ft. Tego Calderon & Cynthia Antigua & Akon.mp3 (3.1 MB)
  • Don Omar Presenta - El Orfanato - Reggaeton - 2008 - BigGod/10. Entrevista El Orfanato Parte 3.com.mp3 (3.8 MB)
  • Don Omar Presenta - El Orfanato - Reggaeton - 2008 - BigGod/11. Dentro De Mi (Don Omar Ft.Chino & Nacho).mp3 (3.2 MB)
  • Don Omar Presenta - El Orfanato - Reggaeton - 2008 - BigGod/12. Salvaje (New Beat) (Don Omar).mp3 (2.4 MB)
  • Don Omar Presenta - El Orfanato - Reggaeton - 2008 - BigGod/13. Run The Show (Don Omar Ft. Kat Deluna).mp3 (3.3 MB)
  • Don Omar Presenta - El Orfanato - Reggaeton - 2008 - BigGod/14. Pobre Corazon (Marcy Place Ft. Divino).mp3 (3.7 MB)
  • Don Omar Presenta - El Orfanato - Reggaeton - 2008 - BigGod/JoinUs.jpg (71 KB)
  • Don Omar Presenta - El Orfanato - Reggaeton - 2008 - BigGod/readme.jpg (0.2 MB)

Comments:


Add report or comment (250 words maximum)

I'd like:  
Type text from captcha: