Our friends

Cotton Comes To Harlem 1970 iNTERNAL DVDRip XviD-MTN torrent

Torrent info

Date 2012-01-25 03:46:46
Category Movies
Hash abb27d9d132e3fde7fc18a63fd119439bd698bb6
Seeds / Leechs -1 / -1 refresh
Full size 705 MB
Tracker http://tracker.thepiratebay.org/announce
Tags cotton comes harlem 1970 internal dvdrip xvid

Related torrents

Hard To Kill 1990 iNTERNAL DVDRiP XViD www supreme-speeds com
The.Pink.Panther.Strikes.Again.1976.iNTERNAL.DVDRip.XviD-UNDEAD
The.Deer.Hunter.1978.iNTERNAL.DVDRip.XviD-TDF -jonny-
Count Dracula 1970 INTERNAL DVDRip XviD-LAP

Torrent's content info

mtn-cotton.avi

Cotton Comes To Harlem 1970 iNTERNAL DVDRip XviD-MTN screenshot
  • Screenshot 1
  • Screenshot 2
  • Screenshot 3
  • Screenshot 4
  • Screenshot 5
  • Screenshot 6
  • Screenshot 7
  • Screenshot 8
  • Screenshot 9

Duration: 01:36:37.66, start: 0.000000, bitrate: 1011 kb/s
Stream #0.0: Video: mpeg4, yuv420p, 576x432 [PAR 1:1 DAR 4:3], 23.98 tbr, 23.98 tbn, 23.98 tbc
Stream #0.1: Audio: mp3, 48000 Hz, 1 channels, s16, 128 kb/s

Check the movie's sound/language:

Text sample Text sample from mtn-cotton.nfo

______ ______________ __
___ |/ /__ __/__ | / /
__ /|_/ /__ / __ |/ /
_ / / / _ / _ /| /
/_/ /_/ /_/ /_/ |_/


Cotton.Comes.To.Harlem.1970.iNTERNAL.DVDRip.XviD-MTN


/RELEASE NOTES

iMDB LiNK: http://www.imdb.com/title/tt0065579/

RELEASE DATE......: 2010-10-15
RUNTiME...........: 97 Min

FiLE SiZE.........: 1x50x15MB
ViDEO.............: 576x432, XviD @ 23.976fps
AUDiO.............: MP3 99kbps Mono
LANGUAGE..........: English
SUBTiTLES.........: French, Spanish

ADDiTiONAL NOTES..: Introducing Coffin Ed and Gravedigger,
two detectives only a mother could love.


/GROUP NEWS

Nothing. Go watch a XviD marathon!
###
###
/GREETS # #
######
Past, present, future... # #
...

Read full text


Text sample Text sample from READ this before playing the Movie.txt

www.Torrenting.com - a special Tracker only for Movies.

we are the most on-time tracker around the globe, You can download releases whenever they release out by group uploaders.

no Wait Time, no Virus, Very Fast Download Speed.

Find us at http://www.torrenting.com

Support Torrenting.com to grow faster :)

Thank you =)

Join The Legends at: http://www.Torrenting.com

www.Torrenting.com
www.Torrenting.com
www.Torrenting.com
www.Torrenting.com




Text sample Text sample from www.Torrenting.com.txt

www.Torrenting.com - a special Tracker only for Movies.

we are the most on-time tracker around the globe, You can download releases whenever they release out by group uploaders.

no Wait Time, no Virus, Very Fast Download Speed.

Find us at http://www.torrenting.com

Support Torrenting.com to grow faster :)

Thank you =)

Join The Legends at: http://www.Torrenting.com

www.Torrenting.com
www.Torrenting.com
www.Torrenting.com
www.Torrenting.com




Contents of download:

705 megabyte in 6 files
Cotton Comes To Harlem 1970 iNTERNAL DVDRip XviD-MTN
  • [ www.Torrenting.com ] - Cotton.Comes.To.Harlem.1970.iNTERNAL.DVDRip.XviD-MTN/mtn-cotton.avi (699 MB)
  • [ www.Torrenting.com ] - Cotton.Comes.To.Harlem.1970.iNTERNAL.DVDRip.XviD-MTN/mtn-cotton.nfo (1.3 KB)
  • [ www.Torrenting.com ] - Cotton.Comes.To.Harlem.1970.iNTERNAL.DVDRip.XviD-MTN/READ this before playing the Movie.txt (0.5 KB)
  • [ www.Torrenting.com ] - Cotton.Comes.To.Harlem.1970.iNTERNAL.DVDRip.XviD-MTN/Sample/mtn-cotton-sample.avi (6.1 MB)
  • [ www.Torrenting.com ] - Cotton.Comes.To.Harlem.1970.iNTERNAL.DVDRip.XviD-MTN/Subs/mtn-cotton.idx (95.4 KB)
  • [ www.Torrenting.com ] - Cotton.Comes.To.Harlem.1970.iNTERNAL.DVDRip.XviD-MTN/www.Torrenting.com.txt (0.5 KB)

Comments:


Add report or comment (250 words maximum)

I'd like:  
Type text from captcha: