Our friends

Jay.Leno.2011.10.28.Adam.Sandler.HDTV.XviD-2HD.avi torrent

Torrent info

Date 2012-01-26 00:57:02
Category Series/TV Shows
Hash 1221509bf6506e4edac5a6ef1c1ef1edcfcc936c
Seeds / Leechs -1 / -1 refresh
Full size 350 MB
Tracker http://tracker.publicbt.com:80
Tags leno 2011 adam sandler hdtv xvid

Related torrents

Conan O Brien 2009 07 20 Adam Sandler HDTV XviD-DVSKY avi [296/468]
Jay Leno 2011 01 31 Adam Sandler HDTV XviD-2HD [eztv]
Jay.Leno.2014.01.21.Adam.Sandler.HDTV.XviD-AFG.[P2PDL]
Jay Leno 2014 01 21 Adam Sandler HDTV XviD-AFG

Torrent's content info

Jay.Leno.2011.10.28.Adam.Sandler.HDTV.XviD-2HD.avi

Jay.Leno.2011.10.28.Adam.Sandler.HDTV.XviD-2HD.avi screenshot
  • Screenshot 1
  • Screenshot 2
  • Screenshot 3
  • Screenshot 4
  • Screenshot 5
  • Screenshot 6
  • Screenshot 7
  • Screenshot 8
  • Screenshot 9

Duration: 00:43:06.98, start: 0.000000, bitrate: 1134 kb/s
Stream #0.0: Video: mpeg4, yuv420p, 624x352 [PAR 1:1 DAR 39:22], 29.97 tbr, 29.97 tbn, 29.97 tbc
Stream #0.1: Audio: mp3, 48000 Hz, 2 channels, s16, 112 kb/s

Check the movie's sound/language:

Contents of download:

350 megabyte in 1 files
Jay.Leno.2011.10.28.Adam.Sandler.HDTV.XviD-2HD.avi
  • Jay.Leno.2011.10.28.Adam.Sandler.HDTV.XviD-2HD.avi (350 MB)

Comments:


Add report or comment (250 words maximum)

I'd like:  
Type text from captcha: