Our friends

NCIS S09E06 HDTV Nl subs DutchReleaseTeam torrent

Torrent info

Date 2012-01-26 00:59:40
Category Series/TV Shows
Hash 45e3196eec1f71c7435d0f935deb408dc7f7e6f0
Seeds / Leechs 0 / 1 refresh
Full size 350 MB
Tracker http://inferno.demonoid.me:3408/scrape
Tags ncis s09e06 hdtv subs dutchreleaseteam
Download – NCIS S09E06 HDTV Nl subs DutchReleaseTeam Download direct – no client needed

Related torrents

NCIS S08E17 HDTV XviD DutchReleaseTeam (dutch subs nl)
NCIS S08E20 HDTV XviD DutchReleaseTeam (dutch subs nl)
NCIS S09E03 Nl subs DutchReleaseTeam
NCIS S09E05 HDTV Nl subs DutchReleaseTeam

Torrent's content info

NCIS S09E06 HDTV Nl subs DutchReleaseTeam.avi

NCIS S09E06 HDTV Nl subs DutchReleaseTeam screenshot
  • Screenshot 1
  • Screenshot 2
  • Screenshot 3
  • Screenshot 4
  • Screenshot 5
  • Screenshot 6
  • Screenshot 7
  • Screenshot 8
  • Screenshot 9

Duration: 00:41:51.14, start: 0.000000, bitrate: 1169 kb/s
Stream #0.0: Video: mpeg4, yuv420p, 624x352 [PAR 1:1 DAR 39:22], 23.98 tbr, 23.98 tbn, 23.98 tbc
Stream #0.1: Audio: mp3, 48000 Hz, 2 channels, s16, 128 kb/s

Check the movie's sound/language:

Text sample Text sample from Torrent downloaded from Demonoid.me.txt

Torrent downloaded from http://www.Demonoid.me




Text sample Text sample from DutchReleaseTeam NFO.txt

Deze film werd u aangeboden door: Koedje, releaser van het Dutchrelease-Team

Indien je nog niet met ons bekend bent, twijfel niet en stap gratis en geheel vrijblijvend in....

Heb je net als ons, erg veel interesse in films en alles daaromheen?
Kom dan eens langs op: http://www.hetmultimediacafe.nl

De gezelligste plek waar je als eerste de beste reviews kunt lezen van alle nieuwe films, series, muziek, games en computer programma's.

MVG het Dutchrelease-Team




Contents of download:

350 megabyte in 5 files
NCIS S09E06 HDTV Nl subs DutchReleaseTeam
  • NCIS S09E06 HDTV Nl subs DutchReleaseTeam/NCIS S09E06 HDTV Nl subs DutchReleaseTeam.avi (350 MB)
  • NCIS S09E06 HDTV Nl subs DutchReleaseTeam/Koedje.png (0.1 MB)
  • NCIS S09E06 HDTV Nl subs DutchReleaseTeam/Multimediacafe.png (0.1 MB)
  • NCIS S09E06 HDTV Nl subs DutchReleaseTeam/DutchReleaseTeam NFO.txt (0.5 KB)
  • NCIS S09E06 HDTV Nl subs DutchReleaseTeam/Torrent downloaded from Demonoid.me.txt (0 KB)

Comments:


Add report or comment (250 words maximum)

I'd like:  
Type text from captcha: