Our friends

MAD S02E08 First.Class_Criminal Minecraft 720p WEB-DL AAC2.0 H264-PhoenixRG torrent

Torrent info

Date 2012-01-26 01:04:05
Category Series/TV Shows
Hash 7fd2f11448a271b90eba6a9efca51cb4f77e222c
Seeds / Leechs 3 / 0 refresh
Full size 287 MB
Tracker http://fr33dom.h33t.com:3310/scrape
Tags s02e08 first class criminal minecraft 720p aac2 h264 phoenixrg

Related torrents

X-Men First Class (2011) BRRip 720p x264 -MitZep (PhoenixRG)
MAD S02E08 First.Class_Criminal Minecraft 720p WEB-DL AAC2.0 H264-PhoenixRG
X-Men First Class 2011 BluRay 720p H264
Sofia.The.First.S01E13.Finding.Clover.720p.HDTV.h264-OOO

Torrent's content info

MAD.S02E08.X-Games.First.Class_Criminal.Minecraft.720p.WEB-DL.AAC2.0.H264-PhoenixRG.mkv

MAD S02E08 First.Class_Criminal Minecraft 720p WEB-DL AAC2.0 H264-PhoenixRG screenshot
  • Screenshot 1
  • Screenshot 2
  • Screenshot 3
  • Screenshot 4
  • Screenshot 5
  • Screenshot 6
  • Screenshot 7
  • Screenshot 8
  • Screenshot 9

Duration: 00:11:16.01, start: 0.000000, bitrate: N/A
Stream #0.0(eng): Audio: aac, 48000 Hz, stereo, s16
Stream #0.1(eng): Video: h264, yuv420p, 1280x720 [PAR 1:1 DAR 16:9], 23.98 fps, 23.98 tbr, 1k tbn, 47.95 tbc

Check the movie's sound/language:

Text sample Text sample from Torrent downloaded from Demonoid.me.txt

Torrent Dowloaded from www.demonoid.me




Text sample Text sample from Torrent downloaded from Extratorrent.com.txt

Torrent downloaded from extratorrent.com

Home of Phoenix Release Group.
Come Visit The Biggest BitTorrent System !!




Text sample Text sample from PRG ©.nfo


L L
L K
fG DK
DGt tGK G
j LEKG EKDK t
j j L LG t ED G iD j
fDjfLLDfjt GG tGfjj GW jGGDDLjjDD
KEEEKKKDL Lf LGLGff tK GEKKEEEEE
EEG EG f j jj G fK GEK
EDf Dj jj ; i, fGtfK jDE
GGLf GfjG :i it LjfK fGDG
DDGDEDLt Gj ,j;; ijE iGEEDDDD
EEEG KGi ji fj ii iG iDW LEEEK
EEL Et ii tf ,f ,f ifW GEE
ELi t,,; ,t ; ijtj tDKK
t;;,i : .f ,;iiL
t iD ;;i,: ,.; ,;itL fi t
fGffG .ji..; .f :.,tjj LfLGK
DLf ;t;..; :f ,.,ttj fGE
G , ;,,:, i :;,ij GE
tG ,,i : :f,tj tj
jjtL ,;, .; .f :tt jjL
GfL i,: . : ;if jfD
t ...

Read full text


Text sample Text sample from Torrent Downloaded from phoenixrg.no-ip.org.txt

Torrent downloaded from http://phoenixrg.no-ip.org




Contents of download:

287 megabyte in 5 files
MAD S02E08 First.Class_Criminal Minecraft 720p WEB-DL AAC2.0 H264-PhoenixRG
  • MAD.S02E08.X-Games.First.Class_Criminal.Minecraft.720p.WEB-DL.AAC2.0.H264-PhoenixRG/MAD.S02E08.X-Games.First.Class_Criminal.Minecraft.720p.WEB-DL.AAC2.0.H264-PhoenixRG.mkv (287 MB)
  • MAD.S02E08.X-Games.First.Class_Criminal.Minecraft.720p.WEB-DL.AAC2.0.H264-PhoenixRG/PRG ©.nfo (9.4 KB)
  • MAD.S02E08.X-Games.First.Class_Criminal.Minecraft.720p.WEB-DL.AAC2.0.H264-PhoenixRG/Torrent downloaded from Demonoid.me.txt (0 KB)
  • MAD.S02E08.X-Games.First.Class_Criminal.Minecraft.720p.WEB-DL.AAC2.0.H264-PhoenixRG/Torrent downloaded from Extratorrent.com.txt (0.1 KB)
  • MAD.S02E08.X-Games.First.Class_Criminal.Minecraft.720p.WEB-DL.AAC2.0.H264-PhoenixRG/Torrent Downloaded from phoenixrg.no-ip.org.txt (0 KB)

Comments:


Add report or comment (250 words maximum)

I'd like:  
Type text from captcha: