Our friends

CSI S10E02 HDTV XviD-LOL-[tracker BTARENA org] avi torrent

Torrent info

Date 2012-01-26 01:16:52
Category Series/TV Shows
Hash bdb8df884858f7c109f93e4e57f8e6e9748737c2
Seeds / Leechs -1 / -1 refresh
Full size 350 MB
Tracker http://tracker.openbittorrent.com/scrape
Tags s10e02 hdtv xvid tracker btarena

Related torrents

The New Adventures of Old Christine S03E02 HDTV XviD-xor [btarena]
Heroes S03E09 HDTV XviD-LOL [btarena.org]
Prison Break S04E16 HDTV XviD-LOL.[BTARENA.org].avi
The Ultimate Fighter S10E02 HDTV XviD-KYR-tracker BTARENA org

Torrent's content info

CSI.S10E02.HDTV.XviD-LOL.avi

CSI S10E02 HDTV XviD-LOL-[tracker BTARENA org] avi screenshot
  • Screenshot 1
  • Screenshot 2
  • Screenshot 3
  • Screenshot 4
  • Screenshot 5
  • Screenshot 6
  • Screenshot 7
  • Screenshot 8
  • Screenshot 9

Duration: 00:43:42.62, start: 0.000000, bitrate: 1118 kb/s
Stream #0.0: Video: mpeg4, yuv420p, 624x352 [PAR 1:1 DAR 39:22], 23.98 tbr, 23.98 tbn, 23.98 tbc
Stream #0.1: Audio: mp3, 48000 Hz, 2 channels, s16, 128 kb/s

Check the movie's sound/language:

Text sample Text sample from CSI.S10E02.HDTV.XviD-LOL.nfo


|-------| |---------------| |-------|
| | | | | |
| | | | | |
| | | | | |
| | | | | |
| | | |---| | | |
| | | | | | | |
| |________ | | | | | |________
| | | |---| | | |
| | | | | |
| | | | | |
| | | | | |
|________________| |_______________| |________________|
<o> o o> \o/ <o o \o
| <|> <| | \ X |.
/< /< /< ...

Read full text


Contents of download:

350 megabyte in 2 files
CSI S10E02 HDTV XviD-LOL-[tracker BTARENA org] avi
  • CSI.S10E02.HDTV.XviD-LOL/CSI.S10E02.HDTV.XviD-LOL.avi (350 MB)
  • CSI.S10E02.HDTV.XviD-LOL/CSI.S10E02.HDTV.XviD-LOL.nfo (3.9 KB)

Comments:


Add report or comment (250 words maximum)

I'd like:  
Type text from captcha: