Our friends

Top Gear S15E05 HD 720p torrent

Torrent info

Date 2012-01-26 01:38:07
Category Series/TV Shows
Hash a3d9131692deb48a229cfea46d56789c0297a561
Seeds / Leechs -1 / -1 refresh
Full size 1491 MB
Tracker http://tracker.openbittorrent.com/scrape
Tags gear s15e05 720p
Download – Top Gear S15E05 HD 720p Download direct – no client needed

Related torrents

Top Gear S14E07 720p HDTV x264-BiA.mkv
Top Gear 16x05 720p HDTV x264-FoV [eztv]
Top Gear S16E05 720p HDTV x264-FoV-[tracker BTARENA org] mkv
Top_Gear 17x05 720p_HDTV_x264-FoV

Top Gear (2002) overview

Description

In our world there are many TV shows that are pleasing to the eye: cooking, music, sports, etc. And the only stand out - show about cars. And of course there should be mentioned a British TV series called "Top Gear". Here are talking about cars and nothing more. Each program is accompanied by a sparkling sense of humor, jokes, and pearls of famous presenters. After 50 minutes of air time, we have time to talk about the latest news in the world auto industry, to test the car on the track, to invite some celebrity and sometimes even arrange a race in Europe. Jeremy, Richard and James with an inimitable sense of humor will tell us about the most important and interesting novelties of the automobile world. Top Gear – TV show, that has changed the life of very many people, changed attitudes towards cars, the attitude of the British attitude to television as a whole. The show, which is worth looking at all, though, because there are very many interesting, beautiful and, of course, ridiculous things. "Top Gear" - the best car show of all times.

Torrent's content info

Top Gear - [15x05] - 2010.07.25 [720p x264 by FoV].mkv

Top Gear S15E05 HD 720p screenshot
  • Screenshot 1
  • Screenshot 2
  • Screenshot 3
  • Screenshot 4
  • Screenshot 5
  • Screenshot 6
  • Screenshot 7
  • Screenshot 8
  • Screenshot 9

Duration: 01:02:21.66, start: 0.000000, bitrate: 192 kb/s
Stream #0.0: Video: h264, yuv420p, 1280x720, PAR 1:1 DAR 16:9, 25 fps, 25 tbr, 1k tbn, 50 tbc
Stream #0.1: Audio: ac3, 48000 Hz, stereo, s16, 192 kb/s

Check the movie's sound/language:

Contents of download:

1491 megabyte in 1 files
Top Gear S15E05 HD 720p
  • Top Gear - [15x05] - 2010.07.25 [720p x264 by FoV].mkv (1491 MB)

Comments:


Add report or comment (250 words maximum)

I'd like:  
Type text from captcha: