Our friends

Il Taccuino di Sherlock Holmes S03e06 - (J.Brett), [XviD - Ita Mp3]L’Uomo Carponi TnTVillage torrent

Torrent info

Date 2012-01-26 01:45:06
Category Series/TV Shows
Hash 7035268ac330ac175c5bc066ff95c242fad1e463
Seeds / Leechs 1 / 3 refresh
Full size 429 MB
Tracker http://tracker.tntvillage.scambioetico.org:2710/scrape
Tags taccuino sherlock holmes s03e06 brett xvid l’uomo carponi tntvillage

Related torrents

Sherlock Holmes II - L'orecchino d'argento [ITA - tntvillage.org]
Sherlock Holmes.WS.2009.XviD.HHI
Librogame- Sherlock Holmes n. 03-04 [Librogame][Pdf- Ita] TnTVillage
Il Taccuino di Sherlock Holmes S03e06 - (J.Brett), [XviD - Ita Mp3]L’Uomo Carponi TnTVillage

Torrent's content info

Sherlock Holmes - Il taccuino di Sherlock Holmes - 06 - L'Uomo Carponi.avi

Il Taccuino di Sherlock Holmes S03e06 - (J.Brett), [XviD - Ita Mp3]L’Uomo Carponi TnTVillage  screenshot
  • Screenshot 1
  • Screenshot 2
  • Screenshot 3
  • Screenshot 4
  • Screenshot 5
  • Screenshot 6
  • Screenshot 7
  • Screenshot 8
  • Screenshot 9

Duration: 00:49:55.56, start: 0.000000, bitrate: 1201 kb/s
Stream #0.0: Video: mpeg4, yuv420p, 640x480 [PAR 1:1 DAR 4:3], 25 tbr, 25 tbn, 25 tbc
Stream #0.1: Audio: mp3, 48000 Hz, 2 channels, s16, 192 kb/s

Check the movie's sound/language:

Contents of download:

429 megabyte in 1 files
Il Taccuino di Sherlock Holmes S03e06 - (J.Brett), [XviD - Ita Mp3]L’Uomo Carponi TnTVillage
  • Sherlock Holmes - Il taccuino di Sherlock Holmes - 06 - L'Uomo Carponi.avi (429 MB)

Comments:


Add report or comment (250 words maximum)

I'd like:  
Type text from captcha: