Our friends

BBC.Our.World.2011.Journey.from.Tahrir.PDTV.x264.AAC Forum.mkv torrent

Torrent info

Date 2012-01-26 01:47:13
Category Series/TV Shows
Hash cab6bc539eea797b84204ca7aa3320af062f77c2
Seeds / Leechs 0 / 0 refresh
Full size 190 MB
Tracker http://www.mvgroup.org:2710/scrape
Tags world 2011 journey from tahrir pdtv x264 forum

Related torrents

BBC Our World 2011 Inside Assads Syria PDTV x264 AAC MVGroup
BBC.Our.World.2011.Stalins.Toxic.Legacy.PDTV.x264.AAC Forum.mkv
BBC Our World 2011 The Vanishing Antarctica PDTV x264 AAC
BBC Our World 2011 That September Day PDTV x264 AAC

Torrent's content info

BBC.Our.World.2011.Journey.from.Tahrir.PDTV.x264.AAC.MVGroup.Forum.mkv

BBC.Our.World.2011.Journey.from.Tahrir.PDTV.x264.AAC Forum.mkv screenshot
  • Screenshot 1
  • Screenshot 2
  • Screenshot 3
  • Screenshot 4
  • Screenshot 5
  • Screenshot 6
  • Screenshot 7
  • Screenshot 8
  • Screenshot 9

Duration: 00:22:02.15, start: 0.000000, bitrate: N/A
Stream #0.0(eng): Video: h264, yuv420p, 832x424 [PAR 1:1 DAR 104:53], 25 fps, 25 tbr, 1k tbn, 50 tbc
Stream #0.1(eng): Audio: aac, 48000 Hz, stereo, s16

Check the movie's sound/language:

Contents of download:

190 megabyte in 1 files
BBC.Our.World.2011.Journey.from.Tahrir.PDTV.x264.AAC Forum.mkv
  • BBC.Our.World.2011.Journey.from.Tahrir.PDTV.x264.AAC.MVGroup.Forum.mkv (190 MB)

Comments:


Add report or comment (250 words maximum)

I'd like:  
Type text from captcha: