Our friends

The Shield S01E09-13 SWESUB DVDRip XviD-DVD-Uploader torrent

Torrent info

Date 2012-01-27 01:05:39
Category Series/TV Shows
Hash 1f96f72395e4c872a26237ba872a283792956d75
Seeds / Leechs -1 / -1 refresh
Full size 1746 MB
Tracker http://tracker.publicbt.com/scrape
Tags shield s01e09 swesub dvdrip xvid uploader

Related torrents

WALLANDER.BRODERNA.SWESUB.DVDrip.XviD-PiratKapten
Guess.Who.2005.SWESUB.DVDRip.XviD-neme91
Julia 2009 Swesub DVDRip XviD-DVD-Uploader [27/42]
The OC S01E09-E12 SWESUB DVDRip XviD-aka

The Shield overview

Description

One of the most realistic films about the police according to assessment of viewers is TV series "The Shield". Motion picture survived seven seasons with 89 episodes. The series has been nominated 49 times for various film awards and received 10 awards, including two "Golden Globe" awards. The series is a crime drama about police officers. Violated all the clichés of the genre, because the heroes have to find their way in a cruel world, very similar to the real, where moral principles are vague and uncertain, and the boundary between good and evil intersect each day. Los Angeles police are willing to do anything to keep order in the streets and to protect civilians from criminals. For the sake of this aim, tough cops will have often to act contrary to law. The road to justice is twisted! But is the end aim justifies the means, and whether you can fight crime by criminal methods? In “The Shield” series there is no ne positive character. Even children are betraying the family, sell drugs and kill. While most police series has at least one positive character (or some) human virtues, in the "Shield" you have to choose between "not the most bad guys," "bad guys" and outright "scumbags." In the film, "The Shield" starring actors Michael Chiklis ("Fantastic Four") and Walton Goggins ("Justified").

Torrent's content info

The.Shield.S01E11.SWESUB.DVDRip.XviD-DVD-Uploader.avi

The Shield S01E09-13 SWESUB DVDRip XviD-DVD-Uploader screenshot
  • Screenshot 1
  • Screenshot 2
  • Screenshot 3
  • Screenshot 4
  • Screenshot 5
  • Screenshot 6
  • Screenshot 7
  • Screenshot 8
  • Screenshot 9

Duration: 00:44:36.96, start: 0.000000, bitrate: 1094 kb/s
Stream #0.0: Video: mpeg4, yuv420p, 656x368 [PAR 1:1 DAR 41:23], 25 tbr, 25 tbn, 25 tbc
Stream #0.1: Audio: mp3, 48000 Hz, 2 channels, s16, 128 kb/s

Check the movie's sound/language:

Text sample Text sample from Dreamseed.nu.txt

http://www.dreamseed.nu - Rippad och Uppladdad av: DVD-Uploader




Contents of download:

1746 megabyte in 6 files
The Shield S01E09-13 SWESUB DVDRip XviD-DVD-Uploader
  • The.Shield.S01E09-13.SWESUB.DVDRip.XviD-DVD-Uploader/The.Shield.S01E11.SWESUB.DVDRip.XviD-DVD-Uploader.avi (349 MB)
  • The.Shield.S01E09-13.SWESUB.DVDRip.XviD-DVD-Uploader/The.Shield.S01E12.SWESUB.DVDRip.XviD-DVD-Uploader.avi (349 MB)
  • The.Shield.S01E09-13.SWESUB.DVDRip.XviD-DVD-Uploader/The.Shield.S01E09.SWESUB.DVDRip.XviD-DVD-Uploader.avi (349 MB)
  • The.Shield.S01E09-13.SWESUB.DVDRip.XviD-DVD-Uploader/The.Shield.S01E10.SWESUB.DVDRip.XviD-DVD-Uploader.avi (349 MB)
  • The.Shield.S01E09-13.SWESUB.DVDRip.XviD-DVD-Uploader/The.Shield.S01E13.SWESUB.DVDRip.XviD-DVD-Uploader.avi (349 MB)
  • The.Shield.S01E09-13.SWESUB.DVDRip.XviD-DVD-Uploader/Dreamseed.nu.txt (0.1 KB)

Comments:


Add report or comment (250 words maximum)

I'd like:  
Type text from captcha: