Our friends

Super 8 2011 720p BRRip A Cryptik Visions H264 torrent

Torrent info

Date 2012-01-27 01:25:59
Category Movies
Hash 1f869ed33b021a1508909f0eee5c326cdf1dd40a
Seeds / Leechs -1 / -1 refresh
Full size 1797 MB
Tracker http://tracker.publicbt.com/scrape
Tags super 2011 720p brrip cryptik visions h264

Related torrents

Shaolin 2011 720P BRRip [Release-Lounge H264]
Animals United 2011 720p BRRip [Release-Lounge H264]
Age Of Heroes 2011 720p BRRip [Release-Lounge H264]
Mars Needs Moms 2011 720p BRRip [Release-Lounge H264]

Torrent's content info

Super 8 2011 720p BRRip [A Cryptik Visions H264].mp4

Super 8 2011 720p BRRip A Cryptik Visions H264 screenshot
  • Screenshot 1
  • Screenshot 2
  • Screenshot 3
  • Screenshot 4
  • Screenshot 5
  • Screenshot 6
  • Screenshot 7
  • Screenshot 8
  • Screenshot 9

Duration: 01:51:48.77, start: 0.000000, bitrate: 2244 kb/s
Stream #0.0(und): Video: h264, yuv420p, 1280x528 [PAR 1:1 DAR 80:33], 2113 kb/s, 23.98 fps, 23.98 tbr, 24k tbn, 47.95 tbc
Stream #0.1(und): Audio: aac, 48000 Hz, stereo, s16, 127 kb/s

Check the movie's sound/language:

Text sample Text sample from Torrent downloaded from ExtraTorrent.com.txt

This torrent downloaded from ExtraTorrent.com



- no fake torrents, all torrents checked by our moderators

- the latest torrent releases

- the biggest torrents community

- the most helpful members and site admins

- the latest news in p2p world




Text sample Text sample from CrystalCutz.txt

This file was downloaded from www.crystalcutz.me




Text sample Text sample from Downmixing Tutorial.nfo



:Downmixing if needed:




Almost every single new application or media player will play 5.1 audio and even if it cant it will downmix to stereo but the xbox 360 is awkward, So heres how you use the encodes we very kindly share for free.

after following the guide you will have 1 MP4 file with 1 x video track and 2 x audio tracks - audio track 1 is the 2 channel stereo @ 128 kbps and the 5.1 is between 384 kbps / 448 kbps and thats how to tell them apart

down load this app >>>> http://www.videohelp.com/tools/MP4Muxer

make a new folder anywhere you like and i mean any where and name it " MP4Muxer " it wont need installed just extract the rar file after download to your new mp4 muxer folder and then have a peek inside and youll see :

1 x read me .txt = ignore it
1 x mp4creator = ignore that aswell
1 x MP4Muxer = green circle...

Read full text


Contents of download:

1797 megabyte in 8 files
Super 8 2011 720p BRRip A Cryptik Visions H264
  • Super 8 2011 720p BRRip [A Cryptik Visions H264]/Super 8 2011 720p BRRip [A Cryptik Visions H264].mp4 (1795 MB)
  • Super 8 2011 720p BRRip [A Cryptik Visions H264]/Screens/3.png (0.7 MB)
  • Super 8 2011 720p BRRip [A Cryptik Visions H264]/Screens/2.png (0.7 MB)
  • Super 8 2011 720p BRRip [A Cryptik Visions H264]/Screens/1.png (0.4 MB)
  • Super 8 2011 720p BRRip [A Cryptik Visions H264]/Screens/Cover.png (0.3 MB)
  • Super 8 2011 720p BRRip [A Cryptik Visions H264]/Downmixing Tutorial.nfo (1.6 KB)
  • Super 8 2011 720p BRRip [A Cryptik Visions H264]/Torrent downloaded from ExtraTorrent.com.txt (0.3 KB)
  • Super 8 2011 720p BRRip [A Cryptik Visions H264]/CrystalCutz.txt (0 KB)

Comments:


Add report or comment (250 words maximum)

I'd like:  
Type text from captcha: