Our friends

Super 8 2011 BRRip XviD AC3-FUSiON torrent

Torrent info

Date 2012-01-27 01:34:27
Category Movies
Hash bb6e7f52f6dd40097bef0b353e557366fa8eade6
Seeds / Leechs -1 / -1 refresh
Full size 1419 MB
Tracker http://exodus.desync.com:6969/scrape
Tags super 2011 brrip xvid fusion
Download – Super 8 2011 BRRip XviD AC3-FUSiON Download direct – no client needed

Related torrents

Dead Space - Aftermath (2011) BRRip XviD By MegaPlay
Captain America The First Avenger 2011 BRRiP XViD AC3-FUSiON
Super 8 *2011* [BRRip.XviD-BiDA] [Lektor PL]
Super 8 (2011) BRRip XviD By MegaPlay

Torrent's content info

Super.8.2011.BRRip.XviD.AC3-FUSiON.avi

Super 8 2011 BRRip XviD AC3-FUSiON screenshot
  • Screenshot 1
  • Screenshot 2
  • Screenshot 3
  • Screenshot 4
  • Screenshot 5
  • Screenshot 6
  • Screenshot 7
  • Screenshot 8
  • Screenshot 9

Duration: 01:51:48.75, start: 0.000000, bitrate: 1740 kb/s
Stream #0.0: Video: mpeg4, yuv420p, 640x272 [PAR 1:1 DAR 40:17], 23.98 tbr, 23.98 tbn, 23.98 tbc
Stream #0.1: Audio: ac3, 48000 Hz, 5.1, s16, 384 kb/s

Check the movie's sound/language:

Text sample Text sample from Super.8.2011.BRRip.XviD.AC3-FUSiON.txt

RELEASE: Super.8.2011.BRRip.XviD.AC3-FUSiON

FORMAT: AVI at 1 741 Kbps
LENGTH: 1.36 GiB for 1h 51mn 48s 744ms

ViDEO: MPEG-4 Visual at 1 346 Kbps
ASPECT: 640 x 272 (2.353) at 23.976 fps

AUDiO: AC3 at 384 Kbps
CHANNELS: 6 channels, 48.0 KHz




Contents of download:

1419 megabyte in 3 files
Super 8 2011 BRRip XviD AC3-FUSiON
  • Super.8.2011.BRRip.XviD.AC3-FUSiON/sample.avi (27 MB)
  • Super.8.2011.BRRip.XviD.AC3-FUSiON/Super.8.2011.BRRip.XviD.AC3-FUSiON.avi (1392 MB)
  • Super.8.2011.BRRip.XviD.AC3-FUSiON/Super.8.2011.BRRip.XviD.AC3-FUSiON.txt (0.2 KB)

Comments:


Add report or comment (250 words maximum)

I'd like:  
Type text from captcha: