Our friends

WWE NXT 2012 01 25 HDTV x264-Ebi torrent

Torrent info

Date 2012-01-27 05:46:37
Category Series/TV Shows
Hash e0fb1f9e5f4a7db35149144fd4044ede0a2048a1
Seeds / Leechs -1 / -1 refresh
Full size 499 MB
Tracker http://tracker.thepiratebay.org/announce
Tags 2012 hdtv x264
Download – WWE NXT 2012 01 25 HDTV x264-Ebi Download direct – no client needed

Related torrents

WWE Elimination Chamber 2012 HDTV x264-RUDOS[BRGTV]
TNA Victory Road 2012 HDTV x264-RUDOS
TNA Victory Road 2012 HDTV x264-RUDOS
WWE Over The Limit 20th May 2012 HDTV x264-Sir Paul

Torrent's content info

WWE.NXT.2012.01.25.HDTV.x264-Ebi.avi

WWE NXT 2012 01 25 HDTV x264-Ebi screenshot
  • Screenshot 1
  • Screenshot 2
  • Screenshot 3
  • Screenshot 4
  • Screenshot 5
  • Screenshot 6
  • Screenshot 7
  • Screenshot 8
  • Screenshot 9

Duration: 00:43:59.60, start: 0.000000, bitrate: 1585 kb/s
Stream #0.0: Video: h264, yuv420p, 704x400 [PAR 1:1 DAR 44:25], 29.97 fps, 29.97 tbr, 29.97 tbn, 59.94 tbc
Stream #0.1: Audio: mp3, 48000 Hz, 2 channels, s16, 192 kb/s

Check the movie's sound/language:

Text sample Text sample from WWE.NXT.2012.01.25.HDTV.x264-Ebi.nfo

Read full text


Text sample Text sample from Read Me.txt

---------------------------------------------------------------------------------

SSSSSSSSSSSSSSS 444444444 AAA
SS:::::::::::::::S 4::::::::4 A:::A
S:::::SSSSSS::::::S 4:::::::::4 A:::::A
S:::::S SSSSSSS 4::::44::::4 A:::::::A
S:::::S 4::::4 4::::4 A:::::::::A
S:::::S 4::::4 4::::4 A:::::A:::::A
S::::SSSS 4::::4 4::::4 A:::::A A:::::A
SS::::::SSSSS 4::::444444::::444 A:::::A A:::::A
SSS::::::::SS 4::::::::::::::::4 A:::::A A:::::A
SSSSSS::::S4444444444:::::444 A:::::AAAAAAAAA:::::A
S:::::S...

Read full text


Contents of download:

499 megabyte in 3 files
WWE NXT 2012 01 25 HDTV x264-Ebi
  • WWE.NXT.2012.01.25.HDTV.x264-Ebi/Read Me.txt (2.9 KB)
  • WWE.NXT.2012.01.25.HDTV.x264-Ebi/WWE.NXT.2012.01.25.HDTV.x264-Ebi.avi (499 MB)
  • WWE.NXT.2012.01.25.HDTV.x264-Ebi/WWE.NXT.2012.01.25.HDTV.x264-Ebi.nfo (2.1 KB)

Comments:


Add report or comment (250 words maximum)

I'd like:  
Type text from captcha: