Our friends

American Idol S11E05 HDTV XviD-2HD torrent

Torrent info

Date 2012-01-27 10:46:08
Category Series/TV Shows
Hash 0ab8c3208008fc145744ef39353c6dcfc03f5be7
Seeds / Leechs -1 / -1 refresh
Full size 360 MB
Tracker http://tracker.thepiratebay.org/announce
Tags american idol s11e05 hdtv xvid
Download – American Idol S11E05 HDTV XviD-2HD Download direct – no client needed

Related torrents

American Idol S07E28 HDTV XviD-XOR [eztv]
American Idol S07E23 HDTV XviD-XOR [eztv]
American Idol S08E06 HDTV XviD-2HD avi [4686/9746]
American Idol S07E40 HDTV XviD-XOR [eztv]

Torrent's content info

american.idol.s11e05.hdtv.xvid-2hd.avi

American Idol S11E05 HDTV XviD-2HD screenshot
  • Screenshot 1
  • Screenshot 2
  • Screenshot 3
  • Screenshot 4
  • Screenshot 5
  • Screenshot 6
  • Screenshot 7
  • Screenshot 8
  • Screenshot 9

Duration: 00:41:29.04, start: 0.000000, bitrate: 1174 kb/s
Stream #0.0: Video: mpeg4, yuv420p, 624x352 [PAR 1:1 DAR 39:22], 29.97 tbr, 29.97 tbn, 29.97 tbc
Stream #0.1: Audio: mp3, 48000 Hz, 2 channels, s16, 112 kb/s

Check the movie's sound/language:

Text sample Text sample from www.Torrentday.com.txt

www.TorrentDay.com - is the Place you should be!!!!!!!!!!!!!!!!!

we are the most on-time tracker around the globe, You can download releases whenever they release out by group of uploaders.

no Wait Time, no Virus, Very Fast Download Speed.

Visit us at http://www.torrentday.com


Support Torrentday.com to grow faster :)


Thank you =)

http://www.Torrentday.com


www.TorrentDay.com
www.TorrentDay.com
www.TorrentDay.com
www.TorrentDay.com




Text sample Text sample from american.idol.s11e05.hdtv.xvid-2hd.nfo

Read full text


Text sample Text sample from First Read This Guide.txt

www.TorrentDay.com - is the Place you should be!!!!!!!!!!!!!!!!!

we are the most on-time tracker around the globe, You can download releases whenever they release out by group of uploaders.

no Wait Time, no Virus, Very Fast Download Speed.

Visit us at http://www.torrentday.com


Support Torrentday.com to grow faster :)


Thank you =)

http://www.Torrentday.com


www.TorrentDay.com
www.TorrentDay.com
www.TorrentDay.com
www.TorrentDay.com




Contents of download:

360 megabyte in 5 files
American Idol S11E05 HDTV XviD-2HD
  • [ www.TorrentDay.com ] - American.Idol.S11E05.HDTV.XviD-2HD/american.idol.s11e05.hdtv.xvid-2hd.avi (349 MB)
  • [ www.TorrentDay.com ] - American.Idol.S11E05.HDTV.XviD-2HD/american.idol.s11e05.hdtv.xvid-2hd.nfo (7.3 KB)
  • [ www.TorrentDay.com ] - American.Idol.S11E05.HDTV.XviD-2HD/First Read This Guide.txt (0.5 KB)
  • [ www.TorrentDay.com ] - American.Idol.S11E05.HDTV.XviD-2HD/Sample/sample-american.idol.s11e05.hdtv.xvid-2hd.avi (11 MB)
  • [ www.TorrentDay.com ] - American.Idol.S11E05.HDTV.XviD-2HD/www.Torrentday.com.txt (0.5 KB)

Comments:


Add report or comment (250 words maximum)

I'd like:  
Type text from captcha: