Our friends

8 MILE /2002/RAP-RETAIL/DD5.1+DTS/NLSUBS torrent

Torrent info

Date 2012-01-27 12:54:08
Category Movies
Hash 9712e1ab7bb503f64e61241bbc55171aee276c0e
Seeds / Leechs -1 / -1 refresh
Full size 4464 MB
Tracker http://tracker.publicbt.com/scrape
Tags mile 2002 retail nlsubs
Download – 8 MILE /2002/RAP-RETAIL/DD5.1+DTS/NLSUBS Download direct – no client needed

Related torrents

The Sweetest Thing(2002)divx nlsubs NLT-Release
1408(2007)divx retail nlsubs NLT-Release (0S/0L)
The Tenth Circle(2008)divx Retail nlsubs NLT-Release (1S/0L)
House of Boys (Release-2010) PAL DD5 1 Retail NLSubs-DMT

Torrent's content info

VTS_01_1.VOB

8 MILE /2002/RAP-RETAIL/DD5.1+DTS/NLSUBS screenshot
  • Screenshot 1
  • Screenshot 2
  • Screenshot 3
  • Screenshot 4
  • Screenshot 5
  • Screenshot 6
  • Screenshot 7
  • Screenshot 8
  • Screenshot 9

Duration: 00:37:47.96, start: 0.287267, bitrate: 3787 kb/s
Stream #0.0[0x1e0]: Video: mpeg2video, yuv420p, 720x576 [PAR 64:45 DAR 16:9], 9800 kb/s, 25 fps, 25 tbr, 90k tbn, 50 tbc
Stream #0.1[0x80]: Audio: ac3, 48000 Hz, 5.1, s16, 384 kb/s

Check the movie's sound/language:

Contents of download:

4464 megabyte in 35 files
8 MILE /2002/RAP-RETAIL/DD5.1+DTS/NLSUBS
  • 8 MILE RAP-RETAIL DD5.1 DTS/8 MILE RAP-RETAIL DD5.1 DTS/IMAGES_TS/8 Mile COVER.jpg (0.3 MB)
  • 8 MILE RAP-RETAIL DD5.1 DTS/8 MILE RAP-RETAIL DD5.1 DTS/IMAGES_TS/8 Mile DISC.jpg (0.2 MB)
  • 8 MILE RAP-RETAIL DD5.1 DTS/8 MILE RAP-RETAIL DD5.1 DTS/VIDEO_TS/VIDEO_TS.BUP (20 KB)
  • 8 MILE RAP-RETAIL DD5.1 DTS/8 MILE RAP-RETAIL DD5.1 DTS/VIDEO_TS/VIDEO_TS.IFO (20 KB)
  • 8 MILE RAP-RETAIL DD5.1 DTS/8 MILE RAP-RETAIL DD5.1 DTS/VIDEO_TS/VIDEO_TS.VOB (1.3 MB)
  • 8 MILE RAP-RETAIL DD5.1 DTS/8 MILE RAP-RETAIL DD5.1 DTS/VIDEO_TS/VTS_01_0.BUP (0.1 MB)
  • 8 MILE RAP-RETAIL DD5.1 DTS/8 MILE RAP-RETAIL DD5.1 DTS/VIDEO_TS/VTS_01_0.IFO (0.1 MB)
  • 8 MILE RAP-RETAIL DD5.1 DTS/8 MILE RAP-RETAIL DD5.1 DTS/VIDEO_TS/VTS_01_0.VOB (301 MB)
  • 8 MILE RAP-RETAIL DD5.1 DTS/8 MILE RAP-RETAIL DD5.1 DTS/VIDEO_TS/VTS_01_1.VOB (1024 MB)
  • 8 MILE RAP-RETAIL DD5.1 DTS/8 MILE RAP-RETAIL DD5.1 DTS/VIDEO_TS/VTS_01_2.VOB (1024 MB)
  • 8 MILE RAP-RETAIL DD5.1 DTS/8 MILE RAP-RETAIL DD5.1 DTS/VIDEO_TS/VTS_01_3.VOB (930 MB)
  • 8 MILE RAP-RETAIL DD5.1 DTS/8 MILE RAP-RETAIL DD5.1 DTS/VIDEO_TS/VTS_02_0.BUP (38 KB)
  • 8 MILE RAP-RETAIL DD5.1 DTS/8 MILE RAP-RETAIL DD5.1 DTS/VIDEO_TS/VTS_02_0.IFO (38 KB)
  • 8 MILE RAP-RETAIL DD5.1 DTS/8 MILE RAP-RETAIL DD5.1 DTS/VIDEO_TS/VTS_02_1.VOB (952 MB)
  • 8 MILE RAP-RETAIL DD5.1 DTS/8 MILE RAP-RETAIL DD5.1 DTS/VIDEO_TS/VTS_03_0.BUP (14 KB)
  • 8 MILE RAP-RETAIL DD5.1 DTS/8 MILE RAP-RETAIL DD5.1 DTS/VIDEO_TS/VTS_03_0.IFO (14 KB)
  • 8 MILE RAP-RETAIL DD5.1 DTS/8 MILE RAP-RETAIL DD5.1 DTS/VIDEO_TS/VTS_03_1.VOB (65 MB)
  • 8 MILE RAP-RETAIL DD5.1 DTS/8 MILE RAP-RETAIL DD5.1 DTS/VIDEO_TS/VTS_04_0.BUP (16 KB)
  • 8 MILE RAP-RETAIL DD5.1 DTS/8 MILE RAP-RETAIL DD5.1 DTS/VIDEO_TS/VTS_04_0.IFO (16 KB)
  • 8 MILE RAP-RETAIL DD5.1 DTS/8 MILE RAP-RETAIL DD5.1 DTS/VIDEO_TS/VTS_04_1.VOB (134 MB)
  • 8 MILE RAP-RETAIL DD5.1 DTS/8 MILE RAP-RETAIL DD5.1 DTS/VIDEO_TS/VTS_05_0.BUP (14 KB)
  • 8 MILE RAP-RETAIL DD5.1 DTS/8 MILE RAP-RETAIL DD5.1 DTS/VIDEO_TS/VTS_05_0.IFO (14 KB)
  • 8 MILE RAP-RETAIL DD5.1 DTS/8 MILE RAP-RETAIL DD5.1 DTS/VIDEO_TS/VTS_05_1.VOB (10 KB)
  • 8 MILE RAP-RETAIL DD5.1 DTS/8 MILE RAP-RETAIL DD5.1 DTS/VIDEO_TS/VTS_06_0.BUP (14 KB)
  • 8 MILE RAP-RETAIL DD5.1 DTS/8 MILE RAP-RETAIL DD5.1 DTS/VIDEO_TS/VTS_06_0.IFO (14 KB)
  • 8 MILE RAP-RETAIL DD5.1 DTS/8 MILE RAP-RETAIL DD5.1 DTS/VIDEO_TS/VTS_06_1.VOB (6.1 MB)
  • 8 MILE RAP-RETAIL DD5.1 DTS/8 MILE RAP-RETAIL DD5.1 DTS/VIDEO_TS/VTS_07_0.BUP (14 KB)
  • 8 MILE RAP-RETAIL DD5.1 DTS/8 MILE RAP-RETAIL DD5.1 DTS/VIDEO_TS/VTS_07_0.IFO (14 KB)
  • 8 MILE RAP-RETAIL DD5.1 DTS/8 MILE RAP-RETAIL DD5.1 DTS/VIDEO_TS/VTS_07_1.VOB (13 MB)
  • 8 MILE RAP-RETAIL DD5.1 DTS/8 MILE RAP-RETAIL DD5.1 DTS/VIDEO_TS/VTS_08_0.BUP (14 KB)
  • 8 MILE RAP-RETAIL DD5.1 DTS/8 MILE RAP-RETAIL DD5.1 DTS/VIDEO_TS/VTS_08_0.IFO (14 KB)
  • 8 MILE RAP-RETAIL DD5.1 DTS/8 MILE RAP-RETAIL DD5.1 DTS/VIDEO_TS/VTS_08_1.VOB (7.1 MB)
  • 8 MILE RAP-RETAIL DD5.1 DTS/8 MILE RAP-RETAIL DD5.1 DTS/VIDEO_TS/VTS_09_0.BUP (14 KB)
  • 8 MILE RAP-RETAIL DD5.1 DTS/8 MILE RAP-RETAIL DD5.1 DTS/VIDEO_TS/VTS_09_0.IFO (14 KB)
  • 8 MILE RAP-RETAIL DD5.1 DTS/8 MILE RAP-RETAIL DD5.1 DTS/VIDEO_TS/VTS_09_1.VOB (5.6 MB)

Comments:


Add report or comment (250 words maximum)

I'd like:  
Type text from captcha: