Our friends

Nata Per Vincere [XviD - Ita Mp3][Tntvillage](MIRCrew) torrent

Torrent info

Date 2012-01-27 12:56:57
Category Movies
Hash 30fc6f99eaf27c3ef9a65a5f6d3e7414de258eac
Seeds / Leechs 26 / 2 refresh
Full size 700 MB
Tracker http://tracker.tntvillage.scambioetico.org:2710/scrape
Tags nata vincere xvid tntvillage mircrew

Related torrents

Bad Boys iTALiAN DVDRip XviD [TNTvillage scambioetico org]
Alain Resnais - Melo - Xvid(TNTVILLAGE)
Aki Kaurismaki - Leningrad Cowboys Go America Xvid(tntvillage)
Nata Per Vincere [XviD - Ita Mp3][Tntvillage](MIRCrew)

Torrent's content info

Nata Per Vincere.avi

Nata Per Vincere [XviD - Ita Mp3][Tntvillage](MIRCrew) screenshot
  • Screenshot 1
  • Screenshot 2
  • Screenshot 3
  • Screenshot 4
  • Screenshot 5
  • Screenshot 6
  • Screenshot 7
  • Screenshot 8
  • Screenshot 9

Duration: 01:42:21.04, start: 0.000000, bitrate: 956 kb/s
Stream #0.0: Video: mpeg4, yuv420p, 576x240 [PAR 1:1 DAR 12:5], 25 tbr, 25 tbn, 25 tbc
Stream #0.1: Audio: mp3, 48000 Hz, 2 channels, s16, 128 kb/s

Check the movie's sound/language:

Contents of download:

700 megabyte in 1 files
Nata Per Vincere [XviD - Ita Mp3][Tntvillage](MIRCrew)
  • Nata Per Vincere.avi (700 MB)

Comments:


Add report or comment (250 words maximum)

I'd like:  
Type text from captcha: