Our friends

Aqua_Live_In_Concert_2009_At_Copenhagen_Tivoli torrent

Torrent info

Date 2012-01-27 12:57:31
Category Movies
Hash 78cb4f498401fbf865deb6321abd6c549704da19
Seeds / Leechs -1 / -1 refresh
Full size 998 MB
Tracker http://tracker.openbittorrent.com/scrape
Tags aqua live concert 2009 copenhagen tivoli

Related torrents

Louis Armstrong - Jazz in Paris - The Best Live Concert vol 2 Jazzmp3 320h33tschon55
The PENbKN (Russian Deep Purple cover project) - Live concert - BikeShow 2008 (St.Petersburg,Russia)
Takida - Curly Sue (Live Grammisgalan 2009)
Thomas Anders - The Gentleman of Music Live in Concert (2009) [

Glee: The 3D Concert Movie overview

Description

The TV show is known for its soundtrack, the artists who has performed leading roles in it, were the real stars, not only as actors but as performers. Summer Tour 2011, organized by North America, was a triumphant show, gathered tens of thousands of fans in four cities in the U.S., where the concerts took place. The authors of the film "Glee. Live Concert in 3D" has unique opportunity to show fans all over the world to witness the concert, which gives your favorite characters of the series, as well as a look behind the scenes of this exciting musical event.

Torrent's content info

Aqua_Live_In_Concert_2009_(Copenhagen Tivoli).avi

Aqua_Live_In_Concert_2009_At_Copenhagen_Tivoli screenshot
  • Screenshot 1
  • Screenshot 2
  • Screenshot 3
  • Screenshot 4
  • Screenshot 5
  • Screenshot 6
  • Screenshot 7
  • Screenshot 8
  • Screenshot 9

Duration: 01:17:55.72, start: 0.000000, bitrate: 1789 kb/s
Stream #0.0: Video: mpeg4, yuv420p, 704x400 [PAR 1:1 DAR 44:25], 25 fps, 25 tbr, 25 tbn, 30k tbc
--
strn : Video
Stream #0.1: Audio: ac3, 48000 Hz, stereo, s16, 256 kb/s

Check the movie's sound/language:

Contents of download:

998 megabyte in 1 files
Aqua_Live_In_Concert_2009_At_Copenhagen_Tivoli
  • Aqua_Live_In_Concert_2009_(Copenhagen Tivoli).avi (998 MB)

Comments:


Add report or comment (250 words maximum)

I'd like:  
Type text from captcha: