Our friends

Guitar Lesson Video - Buddy Guy, Teachin The Blues MakeGreatMusic.Net torrent

Torrent info

Date 2012-01-28 01:01:06
Category Movies
Hash e9a3e5cbc20896ae059be0e1fdb54e0232eb7395
Seeds / Leechs -1 / -1 refresh
Full size 631 MB
Tracker http://tracker.openbittorrent.com/scrape
Tags guitar lesson video buddy teachin blues makegreatmusic

Related torrents

Pat Metheny - Guitar lesson
Guitar Lesson - Motley Crue - Shout At The Devil
Guitar lesson For Begginers Lesson 1 Tab Reading
Buddy Guy Blues Singer(blues)(flac)[rogercc][h33t]

Torrent's content info

Guitar Lesson - Buddy Guy - Teachin' The Blues.avi

Guitar Lesson Video - Buddy Guy, Teachin The Blues MakeGreatMusic.Net screenshot
  • Screenshot 1
  • Screenshot 2
  • Screenshot 3
  • Screenshot 4
  • Screenshot 5
  • Screenshot 6
  • Screenshot 7
  • Screenshot 8
  • Screenshot 9

Duration: 01:12:02.25, start: 0.000000, bitrate: 1225 kb/s
Stream #0.0: Video: mpeg4, yuv420p, 400x304 [PAR 1:1 DAR 25:19], 29.97 tbr, 29.97 tbn, 29.98 tbc
Stream #0.1: Audio: ac3, 48000 Hz, stereo, s16, 256 kb/s

Check the movie's sound/language:

Contents of download:

631 megabyte in 1 files
Guitar Lesson Video - Buddy Guy, Teachin The Blues MakeGreatMusic.Net
  • Guitar Lesson - Buddy Guy - Teachin' The Blues.avi (631 MB)

Comments:


Add report or comment (250 words maximum)

I'd like:  
Type text from captcha: