Our friends

Today Its Me, Tomorrow You [1968][Western] torrent

Torrent info

Date 2012-01-28 01:05:11
Category Movies
Hash 9405485b0f8d41e5899f0a63e7dd4c044a8bab1a
Seeds / Leechs -1 / -1 refresh
Full size 899 MB
Tracker http://tracker.publicbt.com/scrape
Tags today tomorrow 1968 western
Download – Today Its Me, Tomorrow You [1968][Western] Download direct – no client needed

Related torrents

[Mp3 CBR 320 Kbps]Propagandhi-Today's Empires Tomorrow's Ashes[tntvillage.org]
Jimi Hendrix - I Don't Live Today Maybe Tomorrow - LA Forum 1969 [FLAC] Level 8
DAYGLO ABORTIONS [1987] [Vinyl Rip, Flac, Cue] Here Today, Guano Tomorrow [UNREST LP017] rar
Matt Wertz- Today & Tomorrow- EP (2005)

Torrent's content info

Today It's Me, Tomorrow You [1968].avi

Today Its Me, Tomorrow You [1968][Western] screenshot
  • Screenshot 1
  • Screenshot 2
  • Screenshot 3
  • Screenshot 4
  • Screenshot 5
  • Screenshot 6
  • Screenshot 7
  • Screenshot 8
  • Screenshot 9

Duration: 01:34:31.49, start: 0.000000, bitrate: 1330 kb/s
Stream #0.0: Video: mpeg4, yuv420p, 720x416 [PAR 1:1 DAR 45:26], 23.98 tbr, 23.98 tbn, 23.98 tbc
Stream #0.1: Audio: ac3, 48000 Hz, stereo, s16, 192 kb/s

Check the movie's sound/language:

Contents of download:

899 megabyte in 1 files
Today Its Me, Tomorrow You [1968][Western]
  • Today It's Me, Tomorrow You [1968].avi (899 MB)

Comments:


Add report or comment (250 words maximum)

I'd like:  
Type text from captcha: