Our friends

Linkin Park - Road To RevolutionLive At Milton Keynes 2008Rock DVDRip-Rx(Phoenix-RG) torrent

Torrent info

Date 2012-01-28 01:05:45
Category Movies
Hash 4dd2b0620e3f00fd1befbeeb3776b16c6f1d94ae
Seeds / Leechs 1 / 1 refresh
Full size 1313 MB
Tracker http://inferno.demonoid.com:3399/scrape
Tags linkin park road revolutionlive milton keynes 2008rock dvdrip phoenix

Related torrents

Linkin_Park-Road_To_Revolution-Live_At_Milton_Keynes-2008-LiNKiN
Linkin.Park-Road.To.Revolution-Live.At.Milton.Keynes-2008.Mp3.by
Linkin Park-Road To Revolution-Live At Milton Keynes-2008 (www TodoTorrente com)
Linkin Park - Road To RevolutionLive At Milton Keynes 2008Rock DVDRip-Rx(Phoenix-RG)

Sex & Drugs & Rock & Roll (2010) overview

Genre: drama, music, biography Director: Whitecross, Mat

Description

The film tells the story of Ian Dury, who, in his younger years became a founding member of the British punk movement. About the fight between his undying love for his wife and rapidly developing relations with her friends, an incredible talent and all-consuming performances on stage. These were years of unprecedented desire for freedom and overwhelming popularity of rock 'n' roll. Its idols were erected on a pedestal, where people worshiped them and imitated them. Its relaxed, intoxicating music became the symbol of generation.

Torrent's content info

Linkin.Park.Road.To.Revolution.Live.At.Milton.Keynes.2008.DVDRip-MS.mp4

Linkin Park - Road To RevolutionLive At Milton Keynes 2008Rock DVDRip-Rx(Phoenix-RG) screenshot
  • Screenshot 1
  • Screenshot 2
  • Screenshot 3
  • Screenshot 4
  • Screenshot 5
  • Screenshot 6
  • Screenshot 7
  • Screenshot 8
  • Screenshot 9

Duration: 01:25:11.06, start: 0.000000, bitrate: 1875 kb/s
Stream #0.0(und): Video: h264, yuv420p, 852x480, 1551 kb/s, 23.98 fps, 23.98 tbr, 24k tbn, 47.95 tbc
Stream #0.1(und): Audio: aac, 48000 Hz, 5.1, s16, 319 kb/s

Text sample Text sample from INFO.txt


Linkin.Park.Road.To.Revolution.Live.At.Milton.Keynes.2008.DVDRip-MS.mp4
Format : MPEG-4
Format profile : Base Media
Codec ID : isom
File size : 1.12 GiB
Duration : 1h 25mn
Overall bit rate : 1 876 Kbps

Video #1
Format : AVC
Format/Info : Advanced Video Codec
Format profile : High@L5.1
Format settings, CABAC : Yes
Format settings, ReFrames : 6 frames
Codec ID : avc1
Codec ID/Info : Advanced Video Coding
Duration : 1h 25mn
Bit rate mode : Variable
Bit rate : 1 552 Kbps
Maximum bit rate : 4 696 Kbps
Width : 852 pixels
Height : 480 pixels
Display aspect ratio : 16/9
Frame rate mode : Constant
Frame rate : 23.976 fps
Resolution : 24 bits
Colorimetry : 4:2:0
Scan type : Progressive
Bits/(Pixel*Frame) : 0.158
Stream size : 946 MiB (83%)
Writing library : x264 core 57

Audio #2
Format : AAC
...

Read full text


Text sample Text sample from Torrent downloaded from AhaShare.com.txt

Share the fun!!!
Torrent downloaded from AhaShare.com.txt




Text sample Text sample from tracked_by_h33t_com.txt

tracked by www.h33t.com




Text sample Text sample from Torrent downloaded from Demonoid.com.txt

Torrent downloaded from http://www.Demonoid.com




Text sample Text sample from Torrent downloaded from thepiratebay.org.txt

Torrent downloaded from http://thepiratebay.org/




Contents of download:

1313 megabyte in 8 files
Linkin Park - Road To RevolutionLive At Milton Keynes 2008Rock DVDRip-Rx(Phoenix-RG)
  • Linkin Park - Road To RevolutionLive At Milton Keynes [2008][Rock] DVDRip-MS/Linkin.Park.Road.To.Revolution.Live.At.Milton.Keynes.2008.DVDRip-MS.mp4 (1143 MB)
  • Linkin Park - Road To RevolutionLive At Milton Keynes [2008][Rock] DVDRip-MS/Linkin.Park.Road.To.Revolution.Live.At.Milton.2008.DVDRip-MS.mp4 (169 MB)
  • Linkin Park - Road To RevolutionLive At Milton Keynes [2008][Rock] DVDRip-MS/untitled.JPG (0.4 MB)
  • Linkin Park - Road To RevolutionLive At Milton Keynes [2008][Rock] DVDRip-MS/INFO.txt (1.5 KB)
  • Linkin Park - Road To RevolutionLive At Milton Keynes [2008][Rock] DVDRip-MS/Torrent downloaded from AhaShare.com.txt (0.1 KB)
  • Linkin Park - Road To RevolutionLive At Milton Keynes [2008][Rock] DVDRip-MS/Torrent downloaded from thepiratebay.org.txt (0 KB)
  • Linkin Park - Road To RevolutionLive At Milton Keynes [2008][Rock] DVDRip-MS/Torrent downloaded from Demonoid.com.txt (0 KB)
  • Linkin Park - Road To RevolutionLive At Milton Keynes [2008][Rock] DVDRip-MS/tracked_by_h33t_com.txt (0 KB)

Comments:


Add report or comment (250 words maximum)

I'd like:  
Type text from captcha: