Our friends

Horror - House of the Dead 2 (2006) - in Hindi By Bandurao torrent

Torrent info

Date 2012-01-28 01:15:15
Category Movies
Hash 34726dce0407bc45297f62a693ee88a267b4d9e1
Seeds / Leechs -1 / -1 refresh
Full size 550 MB
Tracker http://exodus.desync.com:6969/scrape
Tags horror house dead 2006 hindi bandurao

Related torrents

Big Mommas House 2[2006]DvDrip AC3[Eng]-aXXo
Poultrygeist Night of the Chicken Dead 2006 DVDRip (A KRG-KVCD) Mudbrick
Talents Connection and BEM Films' indie, True Riches, DANCEWORDZ Productions, The Pimps Horror House
Horse Feathers - Words Are Dead [2006]

Torrent's content info

House of the Dead 2 (2006) - in Hindi By Bandurao.mp4

Horror - House of the Dead 2 (2006) - in Hindi By Bandurao screenshot
  • Screenshot 1
  • Screenshot 2
  • Screenshot 3
  • Screenshot 4
  • Screenshot 5
  • Screenshot 6
  • Screenshot 7
  • Screenshot 8
  • Screenshot 9

Duration: 01:24:47.71, start: 0.000000, bitrate: 905 kb/s
Stream #0.0(und): Video: mpeg4, yuv420p, 352x288 [PAR 12:11 DAR 4:3], 774 kb/s, PAR 1149:968 DAR 383:264, 25 fps, 25 tbr, 25 tbn, 25 tbc
Stream #0.1(und): Audio: mp3, 48000 Hz, 2 channels, s16, 128 kb/s

Check the movie's sound/language:

Contents of download:

550 megabyte in 9 files
Horror - House of the Dead 2 (2006) - in Hindi By Bandurao
  • House of the Dead 2 (2006) - in Hindi By Bandurao/House of the Dead 2 (2006) - in Hindi By Bandurao.mp4 (549 MB)
  • House of the Dead 2 (2006) - in Hindi By Bandurao/ScreenShots/vlcsnap-2011-09-19-14h22m22s231.png (0.2 MB)
  • House of the Dead 2 (2006) - in Hindi By Bandurao/ScreenShots/vlcsnap-2011-09-19-14h23m56s150.png (0.2 MB)
  • House of the Dead 2 (2006) - in Hindi By Bandurao/ScreenShots/vlcsnap-2011-09-19-14h22m28s37.png (0.2 MB)
  • House of the Dead 2 (2006) - in Hindi By Bandurao/ScreenShots/vlcsnap-2011-09-19-14h25m00s17.png (0.1 MB)
  • House of the Dead 2 (2006) - in Hindi By Bandurao/ScreenShots/vlcsnap-2011-09-19-14h23m01s109.png (0.1 MB)
  • House of the Dead 2 (2006) - in Hindi By Bandurao/ScreenShots/vlcsnap-2011-09-19-14h24m18s109.png (0.1 MB)
  • House of the Dead 2 (2006) - in Hindi By Bandurao/ScreenShots/vlcsnap-2011-09-19-14h25m32s0.png (0.1 MB)
  • House of the Dead 2 (2006) - in Hindi By Bandurao/ScreenShots/vlcsnap-2011-09-19-14h23m22s64.png (0.1 MB)

Comments:


Add report or comment (250 words maximum)

I'd like:  
Type text from captcha: