Our friends

The Police Certifiable 2008 PROPER BRRip XvidHD 720p-NPW torrent

Torrent info

Date 2012-01-28 01:28:40
Category Movies
Hash 3e7bc91a1eeac0653be8a1d2ccc8a72f65caff8e
Seeds / Leechs -1 / -1 refresh
Full size 3246 MB
Tracker http://tracker.openbittorrent.com/scrape
Tags police certifiable 2008 proper brrip xvidhd 720p

Related torrents

Open Season 3 2010 BRRip XvidHD 720p-NPW
Make Out with Violence 2008 BRRip XvidHD 720p-NPW
The Black Balloon 2008 BRRip XvidHD 720p-NPW
Street Kings (2008) BRRip XvidHD 720p-NPW

Torrent's content info

The Police Certifiable 2008 PROPER BRRip XvidHD 720p-NPW.avi

The Police Certifiable 2008 PROPER BRRip XvidHD 720p-NPW screenshot
  • Screenshot 1
  • Screenshot 2
  • Screenshot 3
  • Screenshot 4
  • Screenshot 5
  • Screenshot 6
  • Screenshot 7
  • Screenshot 8
  • Screenshot 9

Duration: 01:48:34.81, start: 0.000000, bitrate: 4156 kb/s
Stream #0.0: Video: mpeg4, yuv420p, 1280x720 [PAR 1:1 DAR 16:9], 29.97 tbr, 29.97 tbn, 29.98 tbc
Stream #0.1: Audio: ac3, 48000 Hz, 5.1, s16, 640 kb/s

Check the movie's sound/language:

Text sample Text sample from Read This Guide Now.txt

www.TorrentDay.com - Your Gateway To The Scene.

we are the most on-time tracker around the globe, You can download releases whenever they release out by group uploaders.

no Wait Time, no Virus, Very Fast Download Speed.

Join us now at http://www.torrentday.com


Please join us and support TorrentDay.com to grow faster :)


Thank you =)

Come on, Join The Legends at: http://www.Torrentday.com

www.TorrentDay.com
www.TorrentDay.com
www.TorrentDay.com
www.TorrentDay.com




Text sample Text sample from www.Torrentday.com.txt

www.TorrentDay.com - Your Gateway To The Scene.

we are the most on-time tracker around the globe, You can download releases whenever they release out by group uploaders.

no Wait Time, no Virus, Very Fast Download Speed.

Join us now at http://www.torrentday.com


Please join us and support TorrentDay.com to grow faster :)


Thank you =)

Come on, Join The Legends at: http://www.Torrentday.com

www.TorrentDay.com
www.TorrentDay.com
www.TorrentDay.com
www.TorrentDay.com




Text sample Text sample from NPW.nfo

_ _______
( ( /|( ____ )|\ /|
| \ ( || ( )|| ) ( |
| \ | || (____)|| | _ | |
| (\ \) || _____)| |( )| |
| | \ || ( | || || |
| ) \ || ) | () () |
|/ )_)|/ (_______)



_________ ______ ______
|\ /||\ /|\__ __/( __ \ |\ /|( __\
( \ / )| ) ( | ) ( | ( \ )| ) ( || ( )
\ (_) / | | | | | | | | ) || (___) || | |
) _ ( ( ( ) ) | | | | | || ___ || | ||
/ ( ) \ \ \_/ / | | | | ) || ( ) || |) |
( / \ ) \ / ___) (___| (__/ )| ) ( || (__)
|/ \| \_/ \_______/(______/ |/ \(______/ ...

Read full text


Contents of download:

3246 megabyte in 5 files
The Police Certifiable 2008 PROPER BRRip XvidHD 720p-NPW
  • The Police Certifiable 2008 PROPER BRRip XvidHD 720p-NPW [NO-RAR] - [ www.torrentday.com ]/NPW.nfo (2.8 KB)
  • The Police Certifiable 2008 PROPER BRRip XvidHD 720p-NPW [NO-RAR] - [ www.torrentday.com ]/Read This Guide Now.txt (0.5 KB)
  • The Police Certifiable 2008 PROPER BRRip XvidHD 720p-NPW [NO-RAR] - [ www.torrentday.com ]/The Police Certifiable 2008 PROPER BRRip XvidHD 720p-NPW-Sample.avi (18 MB)
  • The Police Certifiable 2008 PROPER BRRip XvidHD 720p-NPW [NO-RAR] - [ www.torrentday.com ]/The Police Certifiable 2008 PROPER BRRip XvidHD 720p-NPW.avi (3228 MB)
  • The Police Certifiable 2008 PROPER BRRip XvidHD 720p-NPW [NO-RAR] - [ www.torrentday.com ]/www.Torrentday.com.txt (0.5 KB)

Comments:


Add report or comment (250 words maximum)

I'd like:  
Type text from captcha: