Our friends

The Worlds Biggest Penis TVRIP-MAGNET torrent

Torrent info

Date 2012-01-28 01:32:04
Category Movies
Hash 297709fa9ee0e497b2d9b01deed0cd3ad7c8c293
Seeds / Leechs -1 / -1 refresh
Full size 650 MB
Tracker http://tracker.openbittorrent.com/scrape
Tags worlds biggest penis tvrip magnet
Download – The Worlds Biggest Penis TVRIP-MAGNET Download direct – no client needed

Related torrents

Discovery.Channel.Worlds.Biggest.Airliner.S01E04.PDTV.XviD-FTP.a
National Geographic Worlds Biggest Cave [PDTV - MVGROUP]
PBS: Secrets of the Dead - Worlds Biggest Bomb 720p
Worlds.Biggest.Pets.PDTV.x264-C4TV

War of the Worlds (2005) overview

Genre: adventure, drama, sci-fi, action, thriller Director: Latt, David Michael

Description

Ray Ferrier is a dock worker who is finishing a night of work in the morning, because he works the night shift. But when he gets home his young daughter Rachel and teenage son Robbie are staying with him at his house in Bayonne, New Jersey, while his pregnant ex-wife Mary Anne and her new husband Tim visit her parents in Boston for the weekend. But then the unthinkable and, ultimately, the unexpected happens to him in an extraordinary sense! Witnessing, and barely escaping the horror, first-hand, it's up to Ray to protect his two kids from terrorist and races up to Boston before one of them gets murdered by a large tripod machine in its path!  

Torrent's content info

The World's Biggest Penis TVRIP-MAGNET.avi

The Worlds Biggest Penis TVRIP-MAGNET screenshot
  • Screenshot 1
  • Screenshot 2
  • Screenshot 3
  • Screenshot 4
  • Screenshot 5
  • Screenshot 6
  • Screenshot 7
  • Screenshot 8
  • Screenshot 9

Duration: 00:48:00.04, start: 0.000000, bitrate: 1888 kb/s
Stream #0.0: Video: mpeg4, yuv420p, 720x368 [PAR 1:1 DAR 45:23], 25 tbr, 25 tbn, 25 tbc
Stream #0.1: Audio: mp3, 48000 Hz, 2 channels, s16, 64 kb/s

Check the movie's sound/language:

Text sample Text sample from Read This Guide Now.txt

www.TorrentDay.com - Your Gateway To The Scene.

we are the most on-time tracker around the globe, You can download releases whenever they release out by group uploaders.

no Wait Time, no Virus, Very Fast Download Speed.

Join us now at http://www.torrentday.com


Please join us and support TorrentDay.com to grow faster :)


Thank you =)

Come on, Join The Legends at: http://www.Torrentday.com

www.TorrentDay.com
www.TorrentDay.com
www.TorrentDay.com
www.TorrentDay.com




Text sample Text sample from www.Torrentday.com.txt

www.TorrentDay.com - Your Gateway To The Scene.

we are the most on-time tracker around the globe, You can download releases whenever they release out by group uploaders.

no Wait Time, no Virus, Very Fast Download Speed.

Join us now at http://www.torrentday.com


Please join us and support TorrentDay.com to grow faster :)


Thank you =)

Come on, Join The Legends at: http://www.Torrentday.com

www.TorrentDay.com
www.TorrentDay.com
www.TorrentDay.com
www.TorrentDay.com




Contents of download:

650 megabyte in 7 files
The Worlds Biggest Penis TVRIP-MAGNET
  • The World's Biggest Penis TVRIP-MAGNET [NO-RAR] - [ www.torrentday.com ]/Read This Guide Now.txt (0.5 KB)
  • The World's Biggest Penis TVRIP-MAGNET [NO-RAR] - [ www.torrentday.com ]/The World's Biggest Penis TVRIP-MAGNET.avi (648 MB)
  • The World's Biggest Penis TVRIP-MAGNET [NO-RAR] - [ www.torrentday.com ]/UUU.jpg (62.5 KB)
  • The World's Biggest Penis TVRIP-MAGNET [NO-RAR] - [ www.torrentday.com ]/vlcsnap-2010-07-21-13h07m27s13.png (0.2 MB)
  • The World's Biggest Penis TVRIP-MAGNET [NO-RAR] - [ www.torrentday.com ]/vlcsnap-2010-07-21-13h08m13s213.png (0.4 MB)
  • The World's Biggest Penis TVRIP-MAGNET [NO-RAR] - [ www.torrentday.com ]/vlcsnap-2010-07-21-13h08m23s58.png (0.6 MB)
  • The World's Biggest Penis TVRIP-MAGNET [NO-RAR] - [ www.torrentday.com ]/www.Torrentday.com.txt (0.5 KB)

Comments:


Add report or comment (250 words maximum)

I'd like:  
Type text from captcha: