Our friends

Hitch 2005 SWESUB DVDRip XviD-Askeen torrent

Torrent info

Date 2012-01-28 01:32:29
Category Movies
Hash d1c0ab158ba092b7cf6e7f0884a3f271e5ad3761
Seeds / Leechs -1 / -1 refresh
Full size 1400 MB
Tracker http://tracker.openbittorrent.com/scrape
Tags hitch 2005 swesub dvdrip xvid askeen
Download – Hitch 2005 SWESUB DVDRip XviD-Askeen Download direct – no client needed

Related torrents

Guess.Who.2005.SWESUB.DVDRip.XviD-neme91
Domino.2005.SWESUB.DVDRip.XviD-Neme91
The.Skeleton.Key.2005.SweSub.DVDrip.XviD-AnGeLiTa
Gisslan.2005.SWESUB.DVDRip.Xvid-pirat

Torrent's content info

Hitch.2005.SWESUB.DVDRip.XviD-Askeen.CD02.avi

Hitch 2005 SWESUB DVDRip XviD-Askeen screenshot
  • Screenshot 1
  • Screenshot 2
  • Screenshot 3
  • Screenshot 4
  • Screenshot 5
  • Screenshot 6
  • Screenshot 7
  • Screenshot 8
  • Screenshot 9

Duration: 00:58:40.80, start: 0.000000, bitrate: 1667 kb/s
Stream #0.0: Video: mpeg4, yuv420p, 704x288 [PAR 1:1 DAR 22:9], 25 tbr, 25 tbn, 25 tbc
Stream #0.1: Audio: mp3, 48000 Hz, 2 channels, s16, 128 kb/s

Check the movie's sound/language:

Text sample Text sample from dreamseed.nu.txt




Contents of download:

1400 megabyte in 3 files
Hitch 2005 SWESUB DVDRip XviD-Askeen
  • Hitch.2005.SWESUB.DVDRip.XviD-Askeen/dreamseed.nu/dreamseed.nu.txt (0 KB)
  • Hitch.2005.SWESUB.DVDRip.XviD-Askeen/Hitch.2005.SWESUB.DVDRip.XviD-Askeen.CD01.avi (700 MB)
  • Hitch.2005.SWESUB.DVDRip.XviD-Askeen/Hitch.2005.SWESUB.DVDRip.XviD-Askeen.CD02.avi (700 MB)

Comments:


Add report or comment (250 words maximum)

I'd like:  
Type text from captcha: