Our friends

The Real Bruce Lee (1979)_Darthmax torrent

Torrent info

Date 2012-01-28 01:32:45
Category Movies
Hash 9c868e97cea9ae003072b610693cccc0147f3b8e
Seeds / Leechs 2 / 3 refresh
Full size 1178 MB
Tracker http://tracker.publicbt.com/scrape
Tags real bruce 1979 darthmax
Download – The Real Bruce Lee (1979)_Darthmax Download direct – no client needed

Related torrents

[Ureshii Saizen] Real Drive - 03 [MP3-XviD][63B86501] avi
Japan - Singles 1979-1983
Bruce Cockburn - Singles (1979-2002) [FLAC] [h33t] - Kitlope
The Real Bruce Lee (1979)_Darthmax

Torrent's content info

The Real Bruce Lee (1979)_Darthmax.avi

The Real Bruce Lee (1979)_Darthmax screenshot
  • Screenshot 1
  • Screenshot 2
  • Screenshot 3
  • Screenshot 4
  • Screenshot 5
  • Screenshot 6
  • Screenshot 7
  • Screenshot 8
  • Screenshot 9

Duration: 01:40:07.70, start: 0.000000, bitrate: 1644 kb/s
Stream #0.0: Video: mpeg4, yuv420p, 640x480 [PAR 1:1 DAR 4:3], 29.97 fps, 29.97 tbr, 29.97 tbn, 2997 tbc
Stream #0.1: Audio: mp3, 44100 Hz, 2 channels, s16, 128 kb/s

Check the movie's sound/language:

Contents of download:

1178 megabyte in 1 files
The Real Bruce Lee (1979)_Darthmax
  • The Real Bruce Lee (1979)_Darthmax/The Real Bruce Lee (1979)_Darthmax.avi (1178 MB)

Comments:


Add report or comment (250 words maximum)

I'd like:  
Type text from captcha: