Our friends

Tupac Live At The House Of Blues 2010 720p MBRRip XviD AC3-KaN1vE torrent

Torrent info

Date 2012-01-28 01:33:13
Category Movies
Hash 7e53d01e6d27e0b82fe9a49c9fd9b39d7705b941
Seeds / Leechs -1 / -1 refresh
Full size 2543 MB
Tracker http://tracker.publicbt.com/scrape
Tags tupac live house blues 2010 720p mbrrip xvid kan1ve

Related torrents

Flipped 2010 720p BRRip XviD AC3-ELiTE
The Social Network 2010 720p BRRip XviD AC3-FLAWL3SS BOZX
The Social Network 2010 720p BDRip XviD AC3-ViSiON
Takers 2010 720p BRRip XviD AC3-ViSiON

Torrent's content info

Tupac Live At The House Of Blues 2010 720p.avi

Tupac Live At The House Of Blues 2010 720p MBRRip XviD AC3-KaN1vE screenshot
  • Screenshot 1
  • Screenshot 2
  • Screenshot 3
  • Screenshot 4
  • Screenshot 5
  • Screenshot 6
  • Screenshot 7
  • Screenshot 8
  • Screenshot 9

Duration: 01:31:05.99, start: 0.000000, bitrate: 3902 kb/s
Stream #0.0: Video: mpeg4, yuv420p, 1280x720 [PAR 1:1 DAR 16:9], 29.97 tbr, 29.97 tbn, 29.98 tbc
Stream #0.1: Audio: ac3, 48000 Hz, stereo, s16, 640 kb/s

Check the movie's sound/language:

Contents of download:

2543 megabyte in 1 files
Tupac Live At The House Of Blues 2010 720p MBRRip XviD AC3-KaN1vE
  • Tupac Live At The House Of Blues 2010 720p/Tupac Live At The House Of Blues 2010 720p.avi (2543 MB)

Comments:


Add report or comment (250 words maximum)

I'd like:  
Type text from captcha: