Our friends

Crazy Stupid Love 2011 TS READNFO XViD DTRG torrent

Torrent info

Date 2012-01-28 01:45:25
Category Movies
Hash 5e2a7e54149127591c2ff873c7b9940588450c2a
Seeds / Leechs -1 / -1 refresh
Full size 834 MB
Tracker http://www.moviejockey.com:2710/0000000714ad421db87187f5aa5391ba/scrape
Tags crazy stupid love 2011 readnfo xvid dtrg
Download – Crazy Stupid Love 2011 TS READNFO XViD DTRG Download direct – no client needed

Related torrents

Crazy Stupid Love 2011 BRRIP XVID AbSurdiTy
Crazy Stupid Love 2011 BDRip XVID AC3 HQ Hive-CM8
Crazy Stupid Love 2011 BRRip XviD AC3-SANTi
Crazy Stupid Love (2011) DVDRip XviD By MegaPlay

Crazy, Stupid, Love. overview

Description

Torrent's content info

Crazy Stupid Love 2011 TS READNFO XViD DTRG.avi

Crazy Stupid Love 2011 TS READNFO XViD DTRG screenshot
  • Screenshot 1
  • Screenshot 2
  • Screenshot 3
  • Screenshot 4
  • Screenshot 5
  • Screenshot 6
  • Screenshot 7
  • Screenshot 8
  • Screenshot 9

Duration: 01:52:06.31, start: 0.000000, bitrate: 1034 kb/s
Stream #0.0: Video: mpeg4, yuv420p, 624x298 [PAR 1:1 DAR 312:149], 29.97 tbr, 29.97 tbn, 29.97 tbc
Stream #0.1: Audio: mp3, 44100 Hz, 2 channels, s16, 128 kb/s

Check the movie's sound/language:

Contents of download:

834 megabyte in 3 files
Crazy Stupid Love 2011 TS READNFO XViD DTRG
  • Crazy Stupid Love 2011 TS READNFO XViD DTRG/Crazy Stupid Love 2011 TS READNFO XViD DTRG.avi (829 MB)
  • Crazy Stupid Love 2011 TS READNFO XViD DTRG/Sample.avi (4.9 MB)
  • Crazy Stupid Love 2011 TS READNFO XViD DTRG/Thumbs.db (8 KB)

Comments:


Add report or comment (250 words maximum)

I'd like:  
Type text from captcha: