Our friends

A Little Bit of Heaven [2011] BRRip 1080p - x264 AC-3 - BRRG torrent

Torrent info

Date 2012-01-28 01:47:26
Category Movies
Hash 539725aa49185d29ce2ed3af4b4e4ef0ba9ef47c
Seeds / Leechs 4 / 2 refresh
Full size 1144 MB
Tracker http://exodus.desync.com:6969/scrape
Tags little heaven 2011 brrip 1080p x264 brrg

Related torrents

Kung Fu Panda 2 2011 BRRip 720p - x264 AC-3 - BRRG
A Little Bit of Heaven [2011] BRRip 1080p - x264 AC-3 - BRRG
Alvin and the Chipmunks Chipwrecked (2011) BRRip 1080p x264--prisak--{HKRG}
Killer.Joe.2011.BRRip.1080p.x264.AAC.ASS.MKV (EUS_XA)

A Little Bit of Heaven overview

Description

Torrent's content info

A Little Bit of Heaven [2011] BRRip 1080p - x264 AC-3 - BRRG.mp4

A Little Bit of Heaven [2011] BRRip 1080p - x264 AC-3 - BRRG screenshot
  • Screenshot 1
  • Screenshot 2
  • Screenshot 3
  • Screenshot 4
  • Screenshot 5
  • Screenshot 6
  • Screenshot 7
  • Screenshot 8
  • Screenshot 9

Duration: 01:46:35.47, start: 0.000000, bitrate: 1500 kb/s
Stream #0.0(und): Video: h264, yuv420p, 1920x1080 [PAR 1:1 DAR 16:9], 1114 kb/s, 23.98 fps, 23.98 tbr, 96k tbn, 47.95 tbc
Stream #0.1(und): Audio: ac3, 48000 Hz, 6 channels, s16, 384 kb/s

Check the movie's sound/language:

Contents of download:

1144 megabyte in 1 files
A Little Bit of Heaven [2011] BRRip 1080p - x264 AC-3 - BRRG
  • A Little Bit of Heaven [2011] BRRip 1080p - x264 AC-3 - BRRG/A Little Bit of Heaven [2011] BRRip 1080p - x264 AC-3 - BRRG.mp4 (1144 MB)

Comments:


Add report or comment (250 words maximum)

I'd like:  
Type text from captcha: