Our friends

Mtv VMA .2011.720p.hdtv.x264-sys.mkv torrent

Torrent info

Date 2012-01-28 12:57:52
Category Movies
Hash f701e207b80adf7fad04f80405a233e0825b4395
Seeds / Leechs -1 / -1 refresh
Full size 3357 MB
Tracker http://tracker.publicbt.com/scrape
Tags 2011 720p hdtv x264
Download – Mtv VMA .2011.720p.hdtv.x264-sys.mkv Download direct – no client needed

Related torrents

Strikeforce Feijao vs Henderson 2011 720p HDTV x264-aAF@Mastitor
Strikeforce Overeem vs Werdum 2011 720p HDTV x264-aAF
WWE Capitol Punishment 2011 720p HDTV x264-RUDOS
Strikeforce Fedor vs Henderson 2011 720p HDTV x264-aAF

Torrent's content info

mtv.video.music.awards.2011.720p.hdtv.x264-sys.mkv

Mtv VMA .2011.720p.hdtv.x264-sys.mkv screenshot
  • Screenshot 1
  • Screenshot 2
  • Screenshot 3
  • Screenshot 4
  • Screenshot 5
  • Screenshot 6
  • Screenshot 7
  • Screenshot 8
  • Screenshot 9

Duration: 01:44:48.64, start: 0.000000, bitrate: 384 kb/s
Stream #0.0: Audio: ac3, 48000 Hz, 5.1, s16, 384 kb/s
Stream #0.1(eng): Video: h264, yuv420p, 1280x720, PAR 1:1 DAR 16:9, 29.97 fps, 29.92 tbr, 1k tbn, 59.94 tbc

Check the movie's sound/language:

Contents of download:

3357 megabyte in 1 files
Mtv VMA .2011.720p.hdtv.x264-sys.mkv
  • mtv.video.music.awards.2011.720p.hdtv.x264-sys.mkv (3357 MB)

Comments:


Add report or comment (250 words maximum)

I'd like:  
Type text from captcha: