Our friends

La.Piel.Que.Habito.2011.[TS-HQ][Espanol-Latino][Ciencia.Ficcion] torrent

Torrent info

Date 2012-01-28 13:03:17
Category Movies
Hash e52c740f1670e53ac948c6654bccac39048835c8
Seeds / Leechs -1 / -1 refresh
Full size 712 MB
Tracker http://tracker.publicbt.com/scrape
Tags piel habito 2011 espanol latino ciencia ficcion

Related torrents

[SsT]Shoujo Sect Innocent Lovers (Espanol Latino)
WWE Judgment Day 09 Espanol Latino-Ingles
La Piel Que Habito (2011) A K A The Skin I Live in 2011 DD5 1 NL
La Piel Que Habito 2011 SWESUB DVDRip XviD-CrilleKex

Torrent's content info

La.Piel.Que.Habito.2011.[TS-HQ][Espanol-Latino][Ciencia.Ficcion].avi

La.Piel.Que.Habito.2011.[TS-HQ][Espanol-Latino][Ciencia.Ficcion] screenshot
  • Screenshot 1
  • Screenshot 2
  • Screenshot 3
  • Screenshot 4
  • Screenshot 5
  • Screenshot 6
  • Screenshot 7
  • Screenshot 8
  • Screenshot 9

Duration: 01:54:48.56, start: 0.000000, bitrate: 867 kb/s
Stream #0.0: Video: mpeg4, yuv420p, 608x336 [PAR 1:1 DAR 38:21], 25 fps, 25 tbr, 25 tbn, 30k tbc
Stream #0.1: Audio: mp3, 44100 Hz, 2 channels, s16, 96 kb/s

Check the movie's sound/language:

Contents of download:

712 megabyte in 1 files
La.Piel.Que.Habito.2011.[TS-HQ][Espanol-Latino][Ciencia.Ficcion]
  • La.Piel.Que.Habito.2011.[TS-HQ][Espanol-Latino][Ciencia.Ficcion].avi (712 MB)

Comments:


Add report or comment (250 words maximum)

I'd like:  
Type text from captcha: