Our friends

Jesse Stone No Remorse 2010 DVDrip x264-SHiTTy torrent

Torrent info

Date 2012-01-28 13:07:50
Category Movies
Hash c08472d797cb514526c565d91b7104df1c100349
Seeds / Leechs -1 / -1 refresh
Full size 691 MB
Tracker http://tracker.openbittorrent.com/scrape
Tags jesse stone remorse 2010 dvdrip x264 shitty

Related torrents

True Legend 2010 DVDRip X264 AC3-gandarloda
The Town 2010 DvDrip x264 FILTERED 450MB-scOrp
Jesse Stone:No Remorse 2010 DVDRip FINSUB
Stone.2010.DVDRip.x264.iNT-utL[rarbg]

Torrent's content info

Jesse.Stone.No.Remorse.2010.DVDrip.x264-SHiTTy.mkv

Jesse Stone No Remorse 2010 DVDrip x264-SHiTTy screenshot
  • Screenshot 1
  • Screenshot 2
  • Screenshot 3
  • Screenshot 4
  • Screenshot 5
  • Screenshot 6
  • Screenshot 7
  • Screenshot 8
  • Screenshot 9

Duration: 01:27:21.52, start: 0.000000, bitrate: 128 kb/s
Stream #0.0(eng): Video: h264, yuv420p, 720x400, PAR 1:1 DAR 9:5, 23.98 fps, 23.98 tbr, 1k tbn, 47.95 tbc
Stream #0.1: Audio: mp3, 48000 Hz, 2 channels, s16, 128 kb/s

Check the movie's sound/language:

Text sample Text sample from www.SceneTime.com.txt

This torrent has been downloaded from http://www.scenetime.com

Join us now and enjoy the unlimited speed

All credit goes to scenetime members and staff
*********the world is ONE big family*****




Text sample Text sample from Jesse.Stone.No.Remorse.2010.DVDrip.x264-SHiTTy.nfo

SHiTTy presents

Jesse Stone: No Remorse (2010)


1h 27mn
720 x 400
23.976 fps
988 Kbps
MP3, 128 Kbps

http://www.imdb.com/title/tt1315216/
Language: English
Genre: Crime | Mystery

Police Chief Jesse Stone, who was suspended by the Paradise, Mass. Town Council,
begins moonlighting for his friend, State Homicide Commander Healy, by investigating
a series of murders in Boston, leaving Rose and Suitcase to handle a crime spree in
Paradise on their own. Jesse pours his energy into his work in an effort to push away
his twin demons: booze and women. When his investigation leads to notorious mob
boss Gino Fish, Jesse's pursuit becomes hazardous.

Tom Selleck ... Jesse Stone
Kathy Baker ... Rose Gammon
Kohl Sudduth ... Luthor 'Suitcase' Simpson
Stephen McHattie ... Commander Healy
Krista Allen ... Cissy
William Sadler ... Gino Fish
Mae Whitman ... Emily Bishop
Todd Hofley ... Alan Garner
Saul Rubinek ... Hasty Hathaway
William Devane ... Dr. Dix
Kerri Smith ......

Read full text


Contents of download:

691 megabyte in 3 files
Jesse Stone No Remorse 2010 DVDrip x264-SHiTTy
  • Jesse.Stone.No.Remorse.2010.DVDrip.x264-SHiTTy-[www.SceneTime.com]/Jesse.Stone.No.Remorse.2010.DVDrip.x264-SHiTTy.mkv (691 MB)
  • Jesse.Stone.No.Remorse.2010.DVDrip.x264-SHiTTy-[www.SceneTime.com]/Jesse.Stone.No.Remorse.2010.DVDrip.x264-SHiTTy.nfo (1.2 KB)
  • Jesse.Stone.No.Remorse.2010.DVDrip.x264-SHiTTy-[www.SceneTime.com]/www.SceneTime.com.txt (0.2 KB)

Comments:


Add report or comment (250 words maximum)

I'd like:  
Type text from captcha: