Our friends

The tale of nights torrent

Torrent info

Date 2012-01-28 13:13:48
Category Movies
Hash 705f1486d8fde15e06ed3027e28d5cf7e7898a3c
Seeds / Leechs -1 / -1 refresh
Full size 1398 MB
Tracker http://tracker.openbittorrent.com/scrape
Tags tale nights
Download – The tale of nights Download direct – no client needed

Related torrents

In.the.Name.of.the.King.A.Dungeon.Siege.Tale.2007.SWESUB.DVDRip.
40 Days And 40 Nights.2002.DvDRip.Xvid.SweSub[Sellwin]
The Handmaid's Tale
[Conclave-Mendoi] ef - a tale of memories 10 [H264][A5FE814D] mkv

Torrent's content info

The Tales of Nights.01.avi

The tale of nights screenshot
  • Screenshot 1
  • Screenshot 2
  • Screenshot 3
  • Screenshot 4
  • Screenshot 5
  • Screenshot 6
  • Screenshot 7
  • Screenshot 8
  • Screenshot 9

Duration: 00:43:31.23, start: 0.000000, bitrate: 2243 kb/s
Stream #0.0: Video: h264, yuv420p, 640x352 [PAR 1:1 DAR 20:11], 23.98 fps, 23.98 tbr, 23.98 tbn, 47.95 tbc
Stream #0.1: Audio: ac3, 48000 Hz, stereo, s16, 192 kb/s

Check the movie's sound/language:

Contents of download:

1398 megabyte in 6 files
The tale of nights
  • The tale of nights/The Tales of Nights/The Tales of Nights.01.avi (698 MB)
  • The tale of nights/The Tales of Nights/The Tales of Nights.02.avi (698 MB)
  • The tale of nights/The Tales of Nights/The Tales of Nights.02.sub (1.2 MB)
  • The tale of nights/The Tales of Nights/The Tales of Nights.01.sub (0.7 MB)
  • The tale of nights/The Tales of Nights/The Tales of Nights.02.idx (16.6 KB)
  • The tale of nights/The Tales of Nights/The Tales of Nights.01.idx (10.4 KB)

Comments:


Add report or comment (250 words maximum)

I'd like:  
Type text from captcha: