Our friends

The Legend is Born-Ip Man 2010 DVDSCR XviD-ZJM torrent

Torrent info

Date 2012-01-28 13:15:13
Category Movies
Hash 025f5fef14b3e1996383dad77d06fd223353df4e
Seeds / Leechs -1 / -1 refresh
Full size 984 MB
Tracker http://tracker.openbittorrent.com/scrape
Tags legend born 2010 dvdscr xvid

Related torrents

Red 2010 DvDScR XviD-FLAWL3SS
The Prankster *2010* [DVDSCR XviD-miguel] [ENG]
Soul Boy 2010 DVDSCR XVID-WBZ
IP Man The Legend is Born 2010 DvDRip XviD vice

Bucky Larson: Born to Be a Star overview

Description

The hero of the movie "Bucky Larson: Born to be a star" Bucky was born in a small town, but a discovery made by him accidently, does not give him rest. And now, after losing a job, he goes to Los Angeles to gain popularity. With the support of girlfriend, the role of which performed Christina Ricci, he cherishes his goal, not having a clue about Hollywood. Comedy "Born to be a star" is directed by Tom Brady, with the participation of screenwriter Adam Sandler, and hence the watch will not be bored.

Torrent's content info

The.Legend.is.Born-Ip.Man.2010.DVDSCR.XviD-ZJM.avi

The Legend is Born-Ip Man 2010 DVDSCR XviD-ZJM screenshot
  • Screenshot 1
  • Screenshot 2
  • Screenshot 3
  • Screenshot 4
  • Screenshot 5
  • Screenshot 6
  • Screenshot 7
  • Screenshot 8
  • Screenshot 9

Duration: 01:38:09.52, start: 0.000000, bitrate: 1401 kb/s
Stream #0.0: Video: mpeg4, yuv420p, 720x316 [PAR 1:1 DAR 180:79], 25 fps, 25 tbr, 25 tbn, 30k tbc
Stream #0.1: Audio: ac3, 48000 Hz, stereo, s16, 192 kb/s

Check the movie's sound/language:

Text sample Text sample from Read This Guide Now.txt

www.TorrentDay.com - Your Gateway To The Scene.

we are the most on-time tracker around the globe, You can download releases whenever they release out by group uploaders.

no Wait Time, no Virus, Very Fast Download Speed.

Join us now at http://www.torrentday.com


Please join us and support TorrentDay.com to grow faster :)


Thank you =)

Come on, Join The Legends at: http://www.Torrentday.com

www.TorrentDay.com
www.TorrentDay.com
www.TorrentDay.com
www.TorrentDay.com




Text sample Text sample from www.Torrentday.com.txt

www.TorrentDay.com - Your Gateway To The Scene.

we are the most on-time tracker around the globe, You can download releases whenever they release out by group uploaders.

no Wait Time, no Virus, Very Fast Download Speed.

Join us now at http://www.torrentday.com


Please join us and support TorrentDay.com to grow faster :)


Thank you =)

Come on, Join The Legends at: http://www.Torrentday.com

www.TorrentDay.com
www.TorrentDay.com
www.TorrentDay.com
www.TorrentDay.com




Text sample Text sample from The.Legend.is.Born-Ip.Man.2010.DVDSCR.XviD-ZJM.nfo

General
Complete name : The.Legend.is.Born-Ip.Man.2010.DVDSCR.XviD-ZJM.avi
Format : AVI
Format/Info : Audio Video Interleave
File size : 984 MiB
Duration : 1h 38mn
Overall bit rate : 1 402 Kbps
Writing application : VirtualDubMod 1.5.10.1 (Build 2366/Release)
Writing library : VirtualDubMod Build 2366/Release

Video
ID : 0
Format : MPEG-4 Visual
Format settings, BVOP : Yes
Format settings, QPel : No
Format settings, GMC : No warppoints
Format settings, Matrix : Default (H.263)
Muxing mode : Packed bitstream
Codec ID : DX50
Codec ID/Hint : DivX 5
Duration : 1h 38mn
Bit rate : 1 200 Kbps
Width : 720...

Read full text


Contents of download:

984 megabyte in 4 files
The Legend is Born-Ip Man 2010 DVDSCR XviD-ZJM
  • The.Legend.is.Born-Ip.Man.2010.DVDSCR.XviD-ZJM [NO-RAR] - [ www.torrentday.com ]/Read This Guide Now.txt (0.5 KB)
  • The.Legend.is.Born-Ip.Man.2010.DVDSCR.XviD-ZJM [NO-RAR] - [ www.torrentday.com ]/The.Legend.is.Born-Ip.Man.2010.DVDSCR.XviD-ZJM.avi (984 MB)
  • The.Legend.is.Born-Ip.Man.2010.DVDSCR.XviD-ZJM [NO-RAR] - [ www.torrentday.com ]/The.Legend.is.Born-Ip.Man.2010.DVDSCR.XviD-ZJM.nfo (2.2 KB)
  • The.Legend.is.Born-Ip.Man.2010.DVDSCR.XviD-ZJM [NO-RAR] - [ www.torrentday.com ]/www.Torrentday.com.txt (0.5 KB)

Comments:


Add report or comment (250 words maximum)

I'd like:  
Type text from captcha: