Our friends

Benny Benassi - The Benny Benassi Show 182 (2012-01-29) torrent

Torrent info

Date 2012-01-30 05:47:59
Category Music
Hash 50f9a2b3fb731a3374d7fe8e740112803297da5e
Seeds / Leechs -1 / -1 refresh
Full size 89 MB
Tracker http://tracker.thepiratebay.org/announce
Tags benny benassi benny benassi show 2012

Related torrents

Attack of the Show 2012 02 28 HDTV XviD-Eclipse [ALEX]
Attack of the Show 2012 02 29 HDTV XviD-Eclipse [ALEX]
Attack of the Show 2012 03 07 HDTV XviD-Eclipse [ALEX]
Attack of the Show 2012 03 08 HDTV XviD-Eclipse [ALEX]

Torrent's content info

20 seconds audio samples

04 - Moguai - Mpire_sample.mp3
Audio file info Duration: 00:05:17.49, start: 0.000000, bitrate: 215 kb/s
Stream #0.0: Audio: mp3, 44100 Hz, 2 channels, s16, 192 kb/s
11 - Joe Garston - The Promise_sample.mp3
Audio file info Duration: 00:03:09.04, start: 0.000000, bitrate: 212 kb/s
Stream #0.0: Audio: mp3, 44100 Hz, 2 channels, s16, 192 kb/s
03 - Dyro - Metaphor_sample.mp3
Audio file info Duration: 00:03:09.02, start: 0.000000, bitrate: 204 kb/s
Stream #0.0: Audio: mp3, 44100 Hz, 2 channels, s16, 192 kb/s
01 - Gary Beck - Feel It_sample.mp3
Audio file info Duration: 00:06:14.93, start: 0.000000, bitrate: 206 kb/s
Stream #0.0: Audio: mp3, 44100 Hz, 2 channels, s16, 224 kb/s

Text sample Text sample from Torrent downloaded from h33t.com.txt

Torrent downloaded from http://www.h33t.com




Text sample Text sample from Torrent downloaded from Demonoid.me.txt

Torrent downloaded from http://www.Demonoid.me




Text sample Text sample from Torrent downloaded from Extratorrent.com.txt

Torrent downloaded from http://www.Extratorrent.com




Text sample Text sample from Torrent downloaded from 1337x.org.txt

Torrent downloaded from http://www.1337x.org




Text sample Text sample from Torrent downloaded from Sceneunderground.org.txt

Torrent downloaded from http://www.Sceneunderground.org




Text sample Text sample from Torrent downloaded from Thepiratebay.org.txt

Torrent downloaded from http://www.Thepiratebay.org




Text sample Text sample from Torrent downloaded from kat.ph.txt

Torrent downloaded from http://www.kat.ph




Contents of download:

89 megabyte in 19 files
Benny Benassi - The Benny Benassi Show 182 (2012-01-29)
  • Benny Benassi - The Benny Benassi Show 182 (2012-01-29)/Torrent NFO/Torrent downloaded from Sceneunderground.org.txt (0.1 KB)
  • Benny Benassi - The Benny Benassi Show 182 (2012-01-29)/Torrent NFO/Torrent downloaded from Extratorrent.com.txt (0 KB)
  • Benny Benassi - The Benny Benassi Show 182 (2012-01-29)/Torrent NFO/Torrent downloaded from Thepiratebay.org.txt (0 KB)
  • Benny Benassi - The Benny Benassi Show 182 (2012-01-29)/Torrent NFO/Torrent downloaded from Demonoid.me.txt (0 KB)
  • Benny Benassi - The Benny Benassi Show 182 (2012-01-29)/Torrent NFO/Torrent downloaded from 1337x.org.txt (0 KB)
  • Benny Benassi - The Benny Benassi Show 182 (2012-01-29)/Torrent NFO/Torrent downloaded from h33t.com.txt (0 KB)
  • Benny Benassi - The Benny Benassi Show 182 (2012-01-29)/Torrent NFO/Torrent downloaded from kat.ph.txt (0 KB)
  • Benny Benassi - The Benny Benassi Show 182 (2012-01-29)/01 - Gary Beck - Feel It.mp3 (9.2 MB)
  • Benny Benassi - The Benny Benassi Show 182 (2012-01-29)/12 - Bingo Players - Mode.mp3 (9.1 MB)
  • Benny Benassi - The Benny Benassi Show 182 (2012-01-29)/02 - Hardwell - Spaceman.mp3 (8.6 MB)
  • Benny Benassi - The Benny Benassi Show 182 (2012-01-29)/10 - Tommy Trash - Monkey See, Monkey Do.mp3 (8.2 MB)
  • Benny Benassi - The Benny Benassi Show 182 (2012-01-29)/04 - Moguai - Mpire.mp3 (8.2 MB)
  • Benny Benassi - The Benny Benassi Show 182 (2012-01-29)/07 - David Guetta feat. Sia - Titanium (Cazzette's Ant Seeking Hamster Mix).mp3 (7.8 MB)
  • Benny Benassi - The Benny Benassi Show 182 (2012-01-29)/09 - Firebeatz - Funky Shit.mp3 (7.5 MB)
  • Benny Benassi - The Benny Benassi Show 182 (2012-01-29)/06 - Felguk - Bassive.mp3 (7.4 MB)
  • Benny Benassi - The Benny Benassi Show 182 (2012-01-29)/05 - Ferry Corsten - Check It Out (Bassjackers Remix).mp3 (7 MB)
  • Benny Benassi - The Benny Benassi Show 182 (2012-01-29)/08 - Kraymer - The Concept.mp3 (6.4 MB)
  • Benny Benassi - The Benny Benassi Show 182 (2012-01-29)/11 - Joe Garston - The Promise.mp3 (4.8 MB)
  • Benny Benassi - The Benny Benassi Show 182 (2012-01-29)/03 - Dyro - Metaphor.mp3 (4.6 MB)

Comments:


Add report or comment (250 words maximum)

I'd like:  
Type text from captcha: