Our friends

The Biggest Loser S13E04 720p HDTV x264-ORENJI torrent

Torrent info

Date 2012-01-31 02:47:00
Category Series/TV Shows
Hash d4132b7cf1e2d4dd25d90dfe93a54228524cbfda
Seeds / Leechs -1 / -1 refresh
Full size 971 MB
Tracker http://tracker.thepiratebay.org/announce
Tags biggest loser s13e04 720p hdtv x264 orenji

Related torrents

survivor s18e04 720p hdtv x264-orenji mkv
survivor s18e05 720p hdtv x264-orenji mkv
survivor s18e07 720p hdtv x264-orenji mkv
Survivor.S18E08.720p.HDTV.x264-ORENJi MKV

Torrent's content info

the.biggest.loser.s13e04.720p.hdtv.x264-orenji.mkv

The Biggest Loser S13E04 720p HDTV x264-ORENJI screenshot
  • Screenshot 1
  • Screenshot 2
  • Screenshot 3
  • Screenshot 4
  • Screenshot 5
  • Screenshot 6
  • Screenshot 7
  • Screenshot 8
  • Screenshot 9

Duration: 00:42:07.84, start: 0.000000, bitrate: 384 kb/s
Stream #0.0: Audio: ac3, 48000 Hz, 5.1, s16, 384 kb/s
Stream #0.1(eng): Video: h264, yuv420p, 1280x720, PAR 1:1 DAR 16:9, 29.97 fps, 29.92 tbr, 1k tbn, 59.94 tbc

Check the movie's sound/language:

the.biggest.loser.s13e04.720p.hdtv.x264-orenji.rar

  • the.biggest.loser.s13e04.720p.hdtv.x264-orenji.mkv (950 MB)

Text sample Text sample from the.biggest.loser.s13e04.720p.hdtv.x264-orenji.nfo

The.Biggest.Loser.S13E04.720p.HDTV.x264-ORENJI
date: Mon Jan 30 2012

CRF 21 preset slow




Text sample Text sample from www.speed.cd read me .txt

Torrent Has Been Downloaded from www.Speed.cd




Text sample Text sample from www.Speed.cd.txt

Torrent Has Been Downloaded from www.Speed.cd




Contents of download:

971 megabyte in 25 files
The Biggest Loser S13E04 720p HDTV x264-ORENJI
  • [ www.Speed.Cd ] - The.Biggest.Loser.S13E04.720p.HDTV.x264-ORENJI/Sample/the.biggest.loser.s13e04.720p.hdtv.x264-orenji-sample.mkv (22 MB)
  • [ www.Speed.Cd ] - The.Biggest.Loser.S13E04.720p.HDTV.x264-ORENJI/the.biggest.loser.s13e04.720p.hdtv.x264-orenji.nfo (0.1 KB)
  • [ www.Speed.Cd ] - The.Biggest.Loser.S13E04.720p.HDTV.x264-ORENJI/the.biggest.loser.s13e04.720p.hdtv.x264-orenji.r00 (48 MB)
  • [ www.Speed.Cd ] - The.Biggest.Loser.S13E04.720p.HDTV.x264-ORENJI/the.biggest.loser.s13e04.720p.hdtv.x264-orenji.r01 (48 MB)
  • [ www.Speed.Cd ] - The.Biggest.Loser.S13E04.720p.HDTV.x264-ORENJI/the.biggest.loser.s13e04.720p.hdtv.x264-orenji.r02 (48 MB)
  • [ www.Speed.Cd ] - The.Biggest.Loser.S13E04.720p.HDTV.x264-ORENJI/the.biggest.loser.s13e04.720p.hdtv.x264-orenji.r03 (48 MB)
  • [ www.Speed.Cd ] - The.Biggest.Loser.S13E04.720p.HDTV.x264-ORENJI/the.biggest.loser.s13e04.720p.hdtv.x264-orenji.r04 (48 MB)
  • [ www.Speed.Cd ] - The.Biggest.Loser.S13E04.720p.HDTV.x264-ORENJI/the.biggest.loser.s13e04.720p.hdtv.x264-orenji.r05 (48 MB)
  • [ www.Speed.Cd ] - The.Biggest.Loser.S13E04.720p.HDTV.x264-ORENJI/the.biggest.loser.s13e04.720p.hdtv.x264-orenji.r06 (48 MB)
  • [ www.Speed.Cd ] - The.Biggest.Loser.S13E04.720p.HDTV.x264-ORENJI/the.biggest.loser.s13e04.720p.hdtv.x264-orenji.r07 (48 MB)
  • [ www.Speed.Cd ] - The.Biggest.Loser.S13E04.720p.HDTV.x264-ORENJI/the.biggest.loser.s13e04.720p.hdtv.x264-orenji.r08 (48 MB)
  • [ www.Speed.Cd ] - The.Biggest.Loser.S13E04.720p.HDTV.x264-ORENJI/the.biggest.loser.s13e04.720p.hdtv.x264-orenji.r09 (48 MB)
  • [ www.Speed.Cd ] - The.Biggest.Loser.S13E04.720p.HDTV.x264-ORENJI/the.biggest.loser.s13e04.720p.hdtv.x264-orenji.r10 (48 MB)
  • [ www.Speed.Cd ] - The.Biggest.Loser.S13E04.720p.HDTV.x264-ORENJI/the.biggest.loser.s13e04.720p.hdtv.x264-orenji.r11 (48 MB)
  • [ www.Speed.Cd ] - The.Biggest.Loser.S13E04.720p.HDTV.x264-ORENJI/the.biggest.loser.s13e04.720p.hdtv.x264-orenji.r12 (48 MB)
  • [ www.Speed.Cd ] - The.Biggest.Loser.S13E04.720p.HDTV.x264-ORENJI/the.biggest.loser.s13e04.720p.hdtv.x264-orenji.r13 (48 MB)
  • [ www.Speed.Cd ] - The.Biggest.Loser.S13E04.720p.HDTV.x264-ORENJI/the.biggest.loser.s13e04.720p.hdtv.x264-orenji.r14 (48 MB)
  • [ www.Speed.Cd ] - The.Biggest.Loser.S13E04.720p.HDTV.x264-ORENJI/the.biggest.loser.s13e04.720p.hdtv.x264-orenji.r15 (48 MB)
  • [ www.Speed.Cd ] - The.Biggest.Loser.S13E04.720p.HDTV.x264-ORENJI/the.biggest.loser.s13e04.720p.hdtv.x264-orenji.r16 (48 MB)
  • [ www.Speed.Cd ] - The.Biggest.Loser.S13E04.720p.HDTV.x264-ORENJI/the.biggest.loser.s13e04.720p.hdtv.x264-orenji.r17 (48 MB)
  • [ www.Speed.Cd ] - The.Biggest.Loser.S13E04.720p.HDTV.x264-ORENJI/the.biggest.loser.s13e04.720p.hdtv.x264-orenji.r18 (44 MB)
  • [ www.Speed.Cd ] - The.Biggest.Loser.S13E04.720p.HDTV.x264-ORENJI/the.biggest.loser.s13e04.720p.hdtv.x264-orenji.rar (48 MB)
  • [ www.Speed.Cd ] - The.Biggest.Loser.S13E04.720p.HDTV.x264-ORENJI/the.biggest.loser.s13e04.720p.hdtv.x264-orenji.sfv (1.2 KB)
  • [ www.Speed.Cd ] - The.Biggest.Loser.S13E04.720p.HDTV.x264-ORENJI/www.speed.cd read me .txt (0 KB)
  • [ www.Speed.Cd ] - The.Biggest.Loser.S13E04.720p.HDTV.x264-ORENJI/www.Speed.cd.txt (0 KB)

Comments:


Add report or comment (250 words maximum)

I'd like:  
Type text from captcha: