Our friends

Deiva Thirtmagal (2011) - Tamil Movie -DVDRip - Economy Quality - BlackStaticRG torrent

Torrent info

Date 2012-02-02 00:57:30
Category Movies
Hash 5466a6580f31c8bfed1fa65b77bec2517bfd7cde
Seeds / Leechs -1 / -1 refresh
Full size 765 MB
Tracker http://www.moviejockey.com:2710/0000d8a766f5e8da6b5c59eb4fad649e/scrape
Tags deiva thirtmagal 2011 tamil movie dvdrip economy quality blackstaticrg

Related torrents

Sabash sariyana potti (2011) - Tamil Movie - Suara - DVDRip - Te
Mankatha (2011) - Tamil Movie - Lotus Economy Quality - DVDRip
MakkaN KaNakku (2011) - Tamil Movie - DVDRip
Ithu Enga Bhoomi (2011) - Tamil Movie - Sruthi - DVDRip avi

Torrent's content info

Deiva Thirtmagal (2011) - Tamil Movie -DVDRip - Economy Quality - BlackStaticRG.avi

Deiva Thirtmagal (2011) - Tamil Movie -DVDRip - Economy Quality - BlackStaticRG screenshot
  • Screenshot 1
  • Screenshot 2
  • Screenshot 3
  • Screenshot 4
  • Screenshot 5
  • Screenshot 6
  • Screenshot 7
  • Screenshot 8
  • Screenshot 9

Duration: 02:41:10.27, start: 0.000000, bitrate: 663 kb/s
Stream #0.0: Video: mpeg4, yuv420p, 608x272 [PAR 1:1 DAR 38:17], 29.97 tbr, 29.97 tbn, 29.98 tbc
Stream #0.1: Audio: mp3, 24000 Hz, 2 channels, s16, 64 kb/s

Check the movie's sound/language:

Contents of download:

765 megabyte in 1 files
Deiva Thirtmagal (2011) - Tamil Movie -DVDRip - Economy Quality - BlackStaticRG
  • Deiva Thirtmagal (2011) - Tamil Movie -DVDRip - Economy Quality - BlackStaticRG.avi (765 MB)

Comments:


Add report or comment (250 words maximum)

I'd like:  
Type text from captcha: