Our friends

Walt Disneys The Jungle Book-DVDRip-(pixie09).(IARG) torrent

Torrent info

Date 2012-02-02 00:59:27
Category Movies
Hash 9dc825ecfbacdd5c4202ad7ab2552703d9842cbb
Seeds / Leechs -1 / -1 refresh
Full size 714 MB
Tracker http://tracker.openbittorrent.com/scrape
Tags walt disneys jungle book dvdrip pixie09 iarg

Related torrents

WALT DISNEYS[CHRISTMAS FAVOURITES][DVDRIP][ENG]-KIDZCORNER&J T R
WALT DISNEYS (CAMP ROCK EXTENDED ROCK STAR EDITION)(DVDRIP)(ENG)-KIDZCORNER&J T R
WALT DISNEYS-WINNIE THE POOH(SPRINGTIME WITH ROO)(DVDRIP)(ENG)-KIDZCORNER&J T R
Meet Joe Black-1998-DVDrip-(pixie09).(IARG)

Torrent's content info

The Jungle Book.AVI

Walt Disneys The Jungle Book-DVDRip-(pixie09).(IARG) screenshot
  • Screenshot 1
  • Screenshot 2
  • Screenshot 3
  • Screenshot 4
  • Screenshot 5
  • Screenshot 6
  • Screenshot 7
  • Screenshot 8
  • Screenshot 9

Duration: 01:15:22.76, start: 0.000000, bitrate: 1308 kb/s
Stream #0.0: Video: h264, yuv420p, 704x576, PAR 12:11 DAR 4:3, 25 tbr, 25 tbn, 50 tbc
Stream #0.1: Audio: mp3, 48000 Hz, 2 channels, s16, 160 kb/s

Check the movie's sound/language:

Text sample Text sample from IARG.txt

IIIIIIIIII AAA RRRRRRRRRRRRRRRRR GGGGGGGGGGGGG
I::::::::I A:::A R::::::::::::::::R GGG::::::::::::G
I::::::::I A:::::A R::::::RRRRRR:::::R GG:::::::::::::::G
II::::::II A:::::::A RR:::::R R:::::R G:::::GGGGGGGG::::G
I::::I A:::::::::A R::::R R:::::R G:::::G GGGGGG
I::::I A:::::A:::::A R::::R R:::::RG:::::G
I::::I A:::::A A:::::A R::::RRRRRR:::::R G:::::G
I::::I A:::::A A:::::A R:::::::::::::RR G:::::G GGGGGGGGGG
I::::I A:::::A A:::::A R::::RRRRRR:::::R G:::::G G::::::::G
I::::I A:::::AAAAAAAAA:::::A R::::R R:::::RG:::::G GGGGG::::G
...

Read full text


Contents of download:

714 megabyte in 3 files
Walt Disneys The Jungle Book-DVDRip-(pixie09).(IARG)
  • Walt Disney's The Jungle Book-DVDRip-(pixie09).(IARG)/IARG.txt (7.5 KB)
  • Walt Disney's The Jungle Book-DVDRip-(pixie09).(IARG)/Sample.avi (9 MB)
  • Walt Disney's The Jungle Book-DVDRip-(pixie09).(IARG)/The Jungle Book.AVI (705 MB)

Comments:


Add report or comment (250 words maximum)

I'd like:  
Type text from captcha: