Our friends

Candy Candy ~ ep 21-30 [DVD-Rip ~ ITA] torrent

Torrent info

Date 2012-02-03 00:47:19
Category Series/TV Shows
Hash 703835811537d23e99336319ee68789e8c26588f
Seeds / Leechs -1 / -1 refresh
Full size 2584 MB
Tracker http://www.h33t.com:3310/scrape
Tags candy candy
Download – Candy Candy ~ ep 21-30 [DVD-Rip ~ ITA] Download direct – no client needed

Related torrents

[Tweak-DATS] Candy Boy 02 [XVID][6D6372EB] avi
Soul For Real - Candy Rain
!! Madonna - Hard Candy (with covers) a DHZ Inc Release [mininova]
(Diclonius) Candy Candy 041 - 050

Torrent's content info

Candy Candy 021 Anthony Non Mi Lasciare .avi

Candy Candy ~ ep 21-30 [DVD-Rip ~ ITA] screenshot
  • Screenshot 1
  • Screenshot 2
  • Screenshot 3
  • Screenshot 4
  • Screenshot 5
  • Screenshot 6
  • Screenshot 7
  • Screenshot 8
  • Screenshot 9

Duration: 00:18:49.28, start: 0.000000, bitrate: 1979 kb/s
Stream #0.0: Video: mpeg4, yuv420p, 640x464 [PAR 1:1 DAR 40:29], 25 tbr, 25 tbn, 25 tbc
Stream #0.1: Audio: mp3, 44100 Hz, 2 channels, s16, 128 kb/s

Check the movie's sound/language:

Text sample Text sample from Candy Candy 021 Anthony Non Mi Lasciare .txt


[ Info sul file ]

Nome: Candy Candy 021 Anthony Non Mi Lasciare .avi
Data: 10/11/2009 20:40:22
Dimensione: 279,429,120 bytes (266.484 MB)

[ Info generiche ]

Durata: 00:18:49 (1129.28 s)
Tipo di contenitore: AVI OpenDML
Streams totali: 2
Tipo stream n. 0: video
Tipo stream n. 1: audio
Audio streams: 1
ISFT: VirtualDubMod 1.5.10.2 (build 2540/release)
JUNK: VirtualDubMod build 2540/release

[ Dati rilevanti ]

Risoluzione: 640 x 464
Larghezza: multipla di 32
Altezza: multipla di 16
DRF medio: 4.475772
Deviazione standard: 0.569777
Media pesata dev. std.: 0.467853

[ Traccia video ]

FourCC: xvid/XVID
Risoluzione: 640 x 464
Frame aspect ratio: 40:29 = 1.379310
Pixel aspect ratio: 1:1 = 1
Display aspect ratio: 40:29 = 1.379310
Framerate: 25 fps
Frames totali: 28232
Stream size: 259,981,245 bytes
Bitrate: 1841.748689 kbps
Qf: 0.248080
Key frames: 287 (0; 90; 168; 216; 250; ... 28219)
Null frames: 0
Min key int: 2
Max key int: 300
Key int medio: 98.369337
Ritardo: 0...

Read full text


Contents of download:

2584 megabyte in 11 files
Candy Candy ~ ep 21-30 [DVD-Rip ~ ITA]
  • Candy Candy ~ ep 21-30 [DVD-Rip ~ ITA]/Candy Candy 021 Anthony Non Mi Lasciare .avi (266 MB)
  • Candy Candy ~ ep 21-30 [DVD-Rip ~ ITA]/Candy Candy 030 Una Lunga Traversata.avi (265 MB)
  • Candy Candy ~ ep 21-30 [DVD-Rip ~ ITA]/Candy Candy 029 Una Dolorosa Partenza.avi (265 MB)
  • Candy Candy ~ ep 21-30 [DVD-Rip ~ ITA]/Candy Candy 027 Un Dono Degli Angeli.avi (261 MB)
  • Candy Candy ~ ep 21-30 [DVD-Rip ~ ITA]/Candy Candy 026 Caro Papà Albero.avi (260 MB)
  • Candy Candy ~ ep 21-30 [DVD-Rip ~ ITA]/Candy Candy 028 Il Dolore Di Candy.avi (260 MB)
  • Candy Candy ~ ep 21-30 [DVD-Rip ~ ITA]/Candy Candy 024 Anthony Mio .avi (256 MB)
  • Candy Candy ~ ep 21-30 [DVD-Rip ~ ITA]/Candy Candy 025 Coraggio, Candy!.avi (251 MB)
  • Candy Candy ~ ep 21-30 [DVD-Rip ~ ITA]/Candy Candy 022 Il Rodeo.avi (250 MB)
  • Candy Candy ~ ep 21-30 [DVD-Rip ~ ITA]/Candy Candy 023 Il Primo Appuntamento.avi (250 MB)
  • Candy Candy ~ ep 21-30 [DVD-Rip ~ ITA]/Candy Candy 021 Anthony Non Mi Lasciare .txt (2.9 KB)

Comments:


Add report or comment (250 words maximum)

I'd like:  
Type text from captcha: