Our friends

Shakira ft. Pitbull - Rabiosa[2011][x264]-mr_amd torrent

Torrent info

Date 2012-02-03 01:06:58
Category Music
Hash 8480202eed43264b1648585ba292b5a7f010dcbe
Seeds / Leechs -1 / -1 refresh
Full size 22 MB
Tracker http://tracker.openbittorrent.com/scrape
Tags shakira pitbull rabiosa 2011 x264

Related torrents

Noah & The Whale-(Live at Desmet 02-15-2011)-x264-2011-mV4U
Shakira Feat Pitbull Rabiosa (English Version) HD 720P NimitMak SilverRG
Shakira ft. Pitbull - Rabiosa - x264 - 720p HD - AAC--AbhinavRocks {{-HKRG-}}
Pitbull - Get It Started (Ft Shakira){M4A+MP4}(1080p)x264[VX]

Torrent's content info

Shakira ft. Pitbull - Rabiosa[2011][x264]-mr_amd.mp4

Shakira ft. Pitbull - Rabiosa[2011][x264]-mr_amd screenshot
  • Screenshot 1
  • Screenshot 2
  • Screenshot 3
  • Screenshot 4
  • Screenshot 5
  • Screenshot 6
  • Screenshot 7
  • Screenshot 8
  • Screenshot 9

Duration: 00:02:50.12, start: 0.000000, bitrate: 1071 kb/s
Stream #0.0(und): Video: h264, yuv420p, 720x400, 907 kb/s, 25 fps, 25 tbr, 90k tbn, 180k tbc
Stream #0.1(und): Audio: aac, 44100 Hz, stereo, s16, 159 kb/s

Check the movie's sound/language:

Contents of download:

22 megabyte in 2 files
Shakira ft. Pitbull - Rabiosa[2011][x264]-mr_amd
  • Shakira ft. Pitbull - Rabiosa[2011][x264]-mr_amd/Shakira ft. Pitbull - Rabiosa[2011][x264]-mr_amd.mp4 (22 MB)
  • Shakira ft. Pitbull - Rabiosa[2011][x264]-mr_amd/Preview.jpg (0.1 MB)

Comments:


Add report or comment (250 words maximum)

I'd like:  
Type text from captcha: