Our friends

Adele-Someone Like You 720p (Shy_Rage) torrent

Torrent info

Date 2012-02-10 01:04:05
Category Music
Hash 3085349e3562c0e31e0bd063323fbcdbc22922fc
Seeds / Leechs -1 / -1 refresh
Full size 52 MB
Tracker http://tracker.openbittorrent.com:80
Tags adele someone like 720p rage
Download – Adele-Someone Like You 720p (Shy_Rage) Download direct – no client needed

Related torrents

Matchbox Twenty - Yourself Or Someone Like You Album(MP3@320kbps)[h33t][t00 h0t]
Matchbox 20 - Yourself or Someone Like You [FLAC] [h33t] - Kitlope
Yourself or Someone Like You
Animal Attraction (aka Someone Like You)

Torrent's content info

Adele-Someone Like You (Live in Her Room) [Shy_Rage].MP4

Adele-Someone Like You 720p (Shy_Rage) screenshot
  • Screenshot 1
  • Screenshot 2
  • Screenshot 3
  • Screenshot 4
  • Screenshot 5
  • Screenshot 6
  • Screenshot 7
  • Screenshot 8
  • Screenshot 9

Duration: 00:06:28.04, start: 0.000000, bitrate: 1115 kb/s
Stream #0.0(und): Video: h264, yuv420p, 1280x720 [PAR 1:1 DAR 16:9], 983 kb/s, 25 fps, 25 tbr, 1k tbn, 50 tbc
Stream #0.1(und): Audio: aac, 44100 Hz, stereo, s16, 127 kb/s

Check the movie's sound/language:

Contents of download:

52 megabyte in 1 files
Adele-Someone Like You 720p (Shy_Rage)
  • Adele-Someone Like You (Live in Her Room) [Shy_Rage].MP4 (52 MB)

Comments:


Add report or comment (250 words maximum)

I'd like:  
Type text from captcha: