Our friends

Shakira feat. Pitbull - Rabiosa [Pitbull Version] (Flac-VEVO-108 torrent

Torrent info

Date 2012-02-11 01:01:32
Category Music
Hash 2c0d6199db2ff81ea5604a39026883ee884d8d58
Seeds / Leechs -1 / -1 refresh
Full size 115 MB
Tracker http://10.rarbg.com/scrape
Tags shakira feat pitbull rabiosa pitbull version flac vevo

Related torrents

Hips Don t Lie - Shakira feat Wyclef Jean 3452293 TPB
OJ Da Juiceman-Make Tha Trap Say Aye Remix Feat Gucci Mane Pitbull -FreeHotNewHipHop com mp3
Shakira Feat Pitbull Rabiosa (English Version) HD 720P NimitMak SilverRG
Shakira ft. Pitbull - Rabiosa - x264 - 720p HD - AAC--AbhinavRocks {{-HKRG-}}

Torrent's content info

Shakira feat. Pitbull - Rabiosa [Pitbull Version] (Flac-VEVO-1080p-H264).mkv

Shakira feat. Pitbull - Rabiosa [Pitbull Version] (Flac-VEVO-108 screenshot
  • Screenshot 1
  • Screenshot 2
  • Screenshot 3
  • Screenshot 4
  • Screenshot 5
  • Screenshot 6
  • Screenshot 7
  • Screenshot 8
  • Screenshot 9

Duration: 00:02:51.03, start: 0.000000, bitrate: N/A
Stream #0.0: Video: h264, yuv420p, 1920x1080, PAR 1:1 DAR 16:9, 25 fps, 25 tbr, 1k tbn, 50 tbc
Stream #0.1: Audio: flac, 44100 Hz, 2 channels, s16

Check the movie's sound/language:

Text sample Text sample from RageHD.net.txt




Contents of download:

115 megabyte in 2 files
Shakira feat. Pitbull - Rabiosa [Pitbull Version] (Flac-VEVO-108
  • Shakira feat. Pitbull - Rabiosa [Pitbull Version] (Flac-VEVO-1080p-H264)/Shakira feat. Pitbull - Rabiosa [Pitbull Version] (Flac-VEVO-1080p-H264).mkv (115 MB)
  • Shakira feat. Pitbull - Rabiosa [Pitbull Version] (Flac-VEVO-1080p-H264)/RageHD.net.txt (0 KB)

Comments:


Add report or comment (250 words maximum)

I'd like:  
Type text from captcha: