Our friends

Kontoret S01E01 SWEDISH 1080i HDTV DD5 1 H264-PandaPuh torrent

Torrent info

Date 2012-02-13 15:46:10
Category Series/TV Shows
Hash 9f1e348696b514709c17a7f22a2779598218312a
Seeds / Leechs -1 / -1 refresh
Full size 2042 MB
Tracker http://tracker.thepiratebay.org/announce
Tags kontoret s01e01 swedish 1080i hdtv h264 pandapuh

Related torrents

Andra.Avenyn.S01E01.SWEDiSH.HDTV.XviD-MsR
Hank 2009 S01E01 HDTV H264 (handhelds) NEW Kelsey Grammer
V 2009 S01E01 HDTV H264
The Jeff Dunham Show S01E01 HDTV H264 (REPLACEMENT)

Torrent's content info

Kontoret.S01E01.SWEDISH.1080i.HDTV.DD5.1-PandaPuh.ts

Kontoret S01E01 SWEDISH 1080i HDTV DD5 1 H264-PandaPuh screenshot
  • Screenshot 1
  • Screenshot 2
  • Screenshot 3
  • Screenshot 4
  • Screenshot 5
  • Screenshot 6
  • Screenshot 7
  • Screenshot 8
  • Screenshot 9

Program 1
Stream #0.0[0x417]: Video: h264, yuv420p, 1920x1080 [PAR 1:1 DAR 16:9], 50 fps, 25 tbr, 90k tbn, 50 tbc
Stream #0.1[0xbe7](swe): Audio: ac3, 48000 Hz, 5.1, s16, 576 kb/s

Check the movie's sound/language:

Contents of download:

2042 megabyte in 1 files
Kontoret S01E01 SWEDISH 1080i HDTV DD5 1 H264-PandaPuh
  • Kontoret.S01E01.SWEDISH.1080i.HDTV.DD5.1-PandaPuh.ts (2042 MB)

Comments:


Add report or comment (250 words maximum)

I'd like:  
Type text from captcha: