Our friends

The Beatles - Anthology DVD 2of5 [DVD9 ENG DTS 5.1 MultiSub] torrent

Torrent info

Date 2012-02-14 00:53:35
Category Music
Hash 96448266a7ec545b5461ca6d86fcf32ed30ef577
Seeds / Leechs -1 / -1 refresh
Full size 7581 MB
Tracker http://tracker.tntvillage.scambioetico.org:2710/scrape
Tags beatles anthology 2of5 dvd9 multisub

Related torrents

The Beatles - (1995) Anthology 1 {iMog}
The Beatles - Anthology 1
The Beatles - Anthology 1 1995 [FLAC] Kitlope
Il Quinto Elemento - Le cinquième élément[DVD9 Full-Ita Eng-MultiSub NU] (MIRCrew) TNT Village

Torrent's content info

VTS_01_3.VOB

The Beatles - Anthology DVD 2of5 [DVD9 ENG DTS 5.1 MultiSub] screenshot
  • Screenshot 1
  • Screenshot 2
  • Screenshot 3
  • Screenshot 4
  • Screenshot 5
  • Screenshot 6
  • Screenshot 7
  • Screenshot 8
  • Screenshot 9

Duration: 00:19:58.89, start: 2416.337267, bitrate: 7164 kb/s
Stream #0.0[0x1e0]: Video: mpeg2video, yuv420p, 720x576 [PAR 16:15 DAR 4:3], 6500 kb/s, 25 tbr, 90k tbn, 50 tbc
Stream #0.1[0x88]: Audio: dca, 48000 Hz, 5.1, s16, 768 kb/s
Stream #0.2[0xa2]: Audio: pcm_s16be, 48000 Hz, 2 channels, s16, 1536 kb/s
Stream #0.3[0x81]: Audio: ac3, 48000 Hz, 5.1, s16, 448 kb/s

Check the movie's sound/language:

Contents of download:

7581 megabyte in 15 files
The Beatles - Anthology DVD 2of5 [DVD9 ENG DTS 5.1 MultiSub]
  • The Beatles - Anthology DVD 2of5/Covers/Beatles Anthology Disco 2 Cap 3 & 4.jpg (5.1 MB)
  • The Beatles - Anthology DVD 2of5/VIDEO_TS/VIDEO_TS.BUP (12 KB)
  • The Beatles - Anthology DVD 2of5/VIDEO_TS/VIDEO_TS.IFO (12 KB)
  • The Beatles - Anthology DVD 2of5/VIDEO_TS/VIDEO_TS.VOB (0.2 MB)
  • The Beatles - Anthology DVD 2of5/VIDEO_TS/VTS_01_0.BUP (94 KB)
  • The Beatles - Anthology DVD 2of5/VIDEO_TS/VTS_01_0.IFO (94 KB)
  • The Beatles - Anthology DVD 2of5/VIDEO_TS/VTS_01_0.VOB (219 MB)
  • The Beatles - Anthology DVD 2of5/VIDEO_TS/VTS_01_1.VOB (1024 MB)
  • The Beatles - Anthology DVD 2of5/VIDEO_TS/VTS_01_2.VOB (1024 MB)
  • The Beatles - Anthology DVD 2of5/VIDEO_TS/VTS_01_3.VOB (1024 MB)
  • The Beatles - Anthology DVD 2of5/VIDEO_TS/VTS_01_4.VOB (1024 MB)
  • The Beatles - Anthology DVD 2of5/VIDEO_TS/VTS_01_5.VOB (1024 MB)
  • The Beatles - Anthology DVD 2of5/VIDEO_TS/VTS_01_6.VOB (1024 MB)
  • The Beatles - Anthology DVD 2of5/VIDEO_TS/VTS_01_7.VOB (1024 MB)
  • The Beatles - Anthology DVD 2of5/VIDEO_TS/VTS_01_8.VOB (190 MB)

Comments:


Add report or comment (250 words maximum)

I'd like:  
Type text from captcha: