Our friends

The Twilight Saga Breaking Dawn Part 1 2011 720p BluRay x264-SPA torrent

Torrent info

Date 2012-02-14 06:46:24
Category Movies
Hash 9f1de5d8d54d08dd37a023ef842eaac054b24a1d
Seeds / Leechs -1 / -1 refresh
Full size 5596 MB
Tracker http://tracker.thepiratebay.org/announce
Tags twilight saga breaking dawn part 2011 720p bluray x264

Related torrents

The Twilight Saga-Breaking Dawn-Part 1 450MB BRRip x264-RippeR
The Twilight Saga Breaking Dawn Part 2 [2012] DVDRip x264 AAC-V3nom
[ www.UsaBit.com ] - The Twilight Saga Breaking Dawn Part 2 (2012) BluRay 720p 800MB Ganool.mkv
The.Twilight.Saga.Breaking.Dawn.Part.2.2012.BluRay.720p.x264.DTS-MySiLU [PublicHD]

The Twilight Saga: Breaking Dawn Part 1 (2011) overview

Director: Condon, Bill

Description

At the fourth part Bella Swan will have to do a difficult choice - to save life herself or her child (half-vampire, half human). She decides to leave the baby, but Edward and the rest of the family Cullen are opposed. Bella can’t expect help from anyone, but it comes unexpectedly, from whom it was not expected. Together Bella and Rosalie are trying to save the life of a baby, not even knowing what disastrous consequences it will lead.

Torrent's content info

sparks-tlsbdp1-720.mkv

The Twilight Saga Breaking Dawn Part 1 2011 720p BluRay x264-SPA screenshot
  • Screenshot 1
  • Screenshot 2
  • Screenshot 3
  • Screenshot 4
  • Screenshot 5
  • Screenshot 6
  • Screenshot 7
  • Screenshot 8
  • Screenshot 9

Duration: 01:57:08.01, start: 0.000000, bitrate: N/A
Stream #0.0(eng): Video: h264, yuv420p, 1280x536, PAR 1:1 DAR 160:67, 23.98 fps, 23.98 tbr, 1k tbn, 47.95 tbc
Stream #0.1(eng): Audio: dca, 48000 Hz, 6 channels, s16
Stream #0.2(eng): Subtitle: 0x0000
--
title : forced
Stream #0.3(eng): Subtitle: 0x0000

Check the movie's sound/language:

Contents of download:

5596 megabyte in 1 files
The Twilight Saga Breaking Dawn Part 1 2011 720p BluRay x264-SPA
  • The.Twilight.Saga.Breaking.Dawn.Part.1.2011.720p.BluRay.x264-SPARKS/sparks-tlsbdp1-720.mkv (5596 MB)

Comments:


Add report or comment (250 words maximum)

I'd like:  
Type text from captcha: