Our friends

Underworld Awakening 2012 R5 XviD-IRS torrent

Torrent info

Date 2012-02-15 03:46:32
Category Movies
Hash 85820182ddeb379cf817a97c66fa5be7360fa5d7
Seeds / Leechs -1 / -1 refresh
Full size 1079 MB
Tracker http://tracker.thepiratebay.org/announce
Tags underworld awakening 2012 xvid
Download – Underworld Awakening 2012 R5 XviD-IRS Download direct – no client needed

Related torrents

Underworld Awakening 2012 TS READNFO XviD - SiC
Underworld Awakening 2012 R5 READNFO XViD - INSPiRAL
Underworld Awakening 2012 R5 FULL LiNE XviD-REFiLL
Underworld Awakening 2012 RC BRRip XviD-ZOMBiES

Underworld: Awakening overview

Description

Torrent's content info

Underworld.Awakening.2012.R5.XviD-IRS.avi

Underworld Awakening 2012 R5 XviD-IRS screenshot
  • Screenshot 1
  • Screenshot 2
  • Screenshot 3
  • Screenshot 4
  • Screenshot 5
  • Screenshot 6
  • Screenshot 7
  • Screenshot 8
  • Screenshot 9

Duration: 01:24:59.92, start: 0.000000, bitrate: 1756 kb/s
Stream #0.0: Video: mpeg4, yuv420p, 720x480 [PAR 1:1 DAR 3:2], PAR 16384:16383 DAR 8192:5461, 25 tbr, 25 tbn, 25 tbc
Stream #0.1: Audio: mp3, 44100 Hz, 2 channels, s16, 256 kb/s

Check the movie's sound/language:

Text sample Text sample from READ this before playing the Movie.txt

www.Torrenting.com - a special Tracker only for Movies.

we are the most on-time tracker around the globe, You can download releases whenever they release out by group uploaders.

no Wait Time, no Virus, Very Fast Download Speed.

Find us at http://www.torrenting.com

Support Torrenting.com to grow faster :)

Thank you =)

Join The Legends at: http://www.Torrenting.com

www.Torrenting.com
www.Torrenting.com
www.Torrenting.com
www.Torrenting.com




Text sample Text sample from www.Torrenting.com.txt

www.Torrenting.com - a special Tracker only for Movies.

we are the most on-time tracker around the globe, You can download releases whenever they release out by group uploaders.

no Wait Time, no Virus, Very Fast Download Speed.

Find us at http://www.torrenting.com

Support Torrenting.com to grow faster :)

Thank you =)

Join The Legends at: http://www.Torrenting.com

www.Torrenting.com
www.Torrenting.com
www.Torrenting.com
www.Torrenting.com




Contents of download:

1079 megabyte in 4 files
Underworld Awakening 2012 R5 XviD-IRS
  • [ www.Torrenting.com ] - Underworld.Awakening.2012.R5.XviD-IRS/READ this before playing the Movie.txt (0.5 KB)
  • [ www.Torrenting.com ] - Underworld.Awakening.2012.R5.XviD-IRS/Underworld.Awakening.2012.R5.XviD-IRS SAMPLE.avi (11 MB)
  • [ www.Torrenting.com ] - Underworld.Awakening.2012.R5.XviD-IRS/Underworld.Awakening.2012.R5.XviD-IRS.avi (1068 MB)
  • [ www.Torrenting.com ] - Underworld.Awakening.2012.R5.XviD-IRS/www.Torrenting.com.txt (0.5 KB)

Comments:


Add report or comment (250 words maximum)

I'd like:  
Type text from captcha: