Our friends

Koppen XL Leven Na De Dood NLVLAAMS XViD-SHOWGEMiST torrent

Torrent info

Date 2012-02-15 05:46:12
Category Series/TV Shows
Hash d7fb36dcad2d005d0e1619830e2695b236b6f1a4
Seeds / Leechs -1 / -1 refresh
Full size 234 MB
Tracker http://tracker.thepiratebay.org/announce
Tags koppen leven dood nlvlaams xvid showgemist

Related torrents

The Tudors S02E03 VOSTFR HDTV XviD-PM4
Doctor Who S04E03 WS PDTV XviD-ANGELiC
Oefeninterland 2012 Engeland vs Nederland NL XViD-SHOWGEMiST
Dood Eind (2006) DVDR(xvid) NL Gespr+NL Subs DMT

Torrent's content info

Koppen.XL.Leven.Na.De.Dood.NLVLAAMS.XViD-SHOWGEMiST.avi

Koppen XL Leven Na De Dood NLVLAAMS XViD-SHOWGEMiST screenshot
  • Screenshot 1
  • Screenshot 2
  • Screenshot 3
  • Screenshot 4
  • Screenshot 5
  • Screenshot 6
  • Screenshot 7
  • Screenshot 8
  • Screenshot 9

Duration: 00:31:25.41, start: 0.000000, bitrate: 1039 kb/s
Stream #0.0: Video: mpeg4, yuv420p, 640x352 [PAR 1:1 DAR 20:11], PAR 45056:46205 DAR 16384:9241, 25 tbr, 25 tbn, 25 tbc
Stream #0.1: Audio: mp3, 48000 Hz, 2 channels, s16, 128 kb/s

Check the movie's sound/language:

Text sample Text sample from SHOWGEMiST @ Twitter.nfo

follow us @ http://twitter.com/#!/ShowGemist




Text sample Text sample from Koppen.XL.Leven.Na.De.Dood.NLVLAAMS.XViD-SHOWGEMiST.nfo

*******************************************************************************
SHOWGEMiST proudly presents:
*******************************************************************************

Release : Koppen.XL.Leven.Na.De.Dood.NL/VLAAMS.XViD-SHOWGEMiST
Filename : Koppen.XL.Leven.Na.De.Dood.NL/VLAAMS.XViD-SHOWGEMiST.avi
-------------------------------------------------------------------------------------
Episode Info
Op dinsdag 7 februari verdiepte Koppen XL zich in bijna-doodervaringen, een fenomeen dat al eeuwenlang en overal ter wereld voorkomt. Sommigen schrijven bijnadoodervaringen toe aan fantasie, een psychose of een zuurstoftekort, maar volgens anderen is het een authentieke ervaring.
-------------------------------------------------------------------------------------
Screens
http://www.imgcrave.com/u/9O2aX.jpg
http://www.imgcrave.com/u/AEsjw.jpg
http://www.imgcrave.com/u/61SQz.jpg
-------------------------------------------------------------------------------------
Release...

Read full text


Contents of download:

234 megabyte in 3 files
Koppen XL Leven Na De Dood NLVLAAMS XViD-SHOWGEMiST
  • Koppen.XL.Leven.Na.De.Dood.NLVLAAMS.XViD-SHOWGEMiST/Koppen.XL.Leven.Na.De.Dood.NLVLAAMS.XViD-SHOWGEMiST.avi (234 MB)
  • Koppen.XL.Leven.Na.De.Dood.NLVLAAMS.XViD-SHOWGEMiST/Koppen.XL.Leven.Na.De.Dood.NLVLAAMS.XViD-SHOWGEMiST.nfo (2.2 KB)
  • Koppen.XL.Leven.Na.De.Dood.NLVLAAMS.XViD-SHOWGEMiST/SHOWGEMiST @ Twitter.nfo (0 KB)

Comments:


Add report or comment (250 words maximum)

I'd like:  
Type text from captcha: