Our friends

Two and a Half Men S09E16 720p HDTV Nl subs DutchReleaseTeam torrent

Torrent info

Date 2012-02-15 06:46:03
Category Series/TV Shows
Hash 59643feb1d5190970401a461ae5c4f6b5fb45d55
Seeds / Leechs -1 / -1 refresh
Full size 570 MB
Tracker http://tracker.thepiratebay.org/announce
Tags half s09e16 720p hdtv subs dutchreleaseteam

Related torrents

Continuum S01E02 HDTV 720p Nl subs DutchReleaseTeam
Continuum S01E05 HDTV 720p Nl subs DutchReleaseTeam
Anger Management S01E02 HDTV 720p Nl subs DutchReleaseTeam
Anger Management S01E06 HDTV 720p Nl subs DutchReleaseTeam

Torrent's content info

Two and a Half Men S09E16 720p HDTV Nl subs DutchReleaseTeam.mkv

Two and a Half Men S09E16 720p HDTV Nl subs DutchReleaseTeam screenshot
  • Screenshot 1
  • Screenshot 2
  • Screenshot 3
  • Screenshot 4
  • Screenshot 5
  • Screenshot 6
  • Screenshot 7
  • Screenshot 8
  • Screenshot 9

Duration: 00:20:06.54, start: 0.000000, bitrate: 384 kb/s
Stream #0.0(eng): Video: h264, yuv420p, 1280x720, PAR 1:1 DAR 16:9, 23.98 fps, 23.98 tbr, 1k tbn, 47.95 tbc
Stream #0.1: Audio: ac3, 48000 Hz, stereo, s16, 384 kb/s
Stream #0.2(dut): Subtitle: 0x0000

Check the movie's sound/language:

Text sample Text sample from NFO MKV.txt



//Dutch

Problemen met het afspelen van mkv op je computer / Externe HD / USB?

Update dan je codecs met K-lite Codec: http://www.free-codecs.com/download/k_lite_codec_pack.htm
Of download VLC media player: http://www.videolan.org/vlc/download-windows.html

Als je problemen hebt om hem af te spelen op je TV via een Externe hardeschijf, USB of Mediaserver, kijk dan of misschien
updates beschikbaar zijn voor jouw schijf.


Kun je de subs niet zien?

Windows Media Player Classic > Navigate > Subtitle Language
VLC Media Player > Video > Ondertitelspoor

Playstation 3 (met gebruik ps3 media server) Map film > #TRANSCODE SETTINGS > Film > Nederlandse flag afspelen.


Als je nog meer problemen hebt kun je contact met mij opnemen op hetmultimediacafe.be





// English


Trouble playing mkv's on your computer?

Then try to update your codecs with K-lite Codec: http://www.free-codecs.com/download/k_lite_codec_pack.htm
Or download VLC media player:...

Read full text


Text sample Text sample from Torrent downloaded from Demonoid.me.txt

Torrent downloaded from http://www.Demonoid.me




Text sample Text sample from DutchReleaseTeam NFO.txt

Deze film werd u aangeboden door: Koedje, releaser van het Dutchrelease-Team

Indien je nog niet met ons bekend bent, twijfel niet en stap gratis en geheel vrijblijvend in....

Heb je net als ons, erg veel interesse in films en alles daaromheen?
Kom dan eens langs op: http://www.hetmultimediacafe.nl

De gezelligste plek waar je als eerste de beste reviews kunt lezen van alle nieuwe films, series, muziek, games en computer programma's.

MVG het Dutchrelease-Team




Contents of download:

570 megabyte in 6 files
Two and a Half Men S09E16 720p HDTV Nl subs DutchReleaseTeam
  • Two and a Half Men S09E16 720p HDTV Nl subs DutchReleaseTeam/Two and a Half Men S09E16 720p HDTV Nl subs DutchReleaseTeam.mkv (569 MB)
  • Two and a Half Men S09E16 720p HDTV Nl subs DutchReleaseTeam/Koedje.png (0.1 MB)
  • Two and a Half Men S09E16 720p HDTV Nl subs DutchReleaseTeam/Multimediacafe.png (0.1 MB)
  • Two and a Half Men S09E16 720p HDTV Nl subs DutchReleaseTeam/NFO MKV.txt (1.2 KB)
  • Two and a Half Men S09E16 720p HDTV Nl subs DutchReleaseTeam/DutchReleaseTeam NFO.txt (0.5 KB)
  • Two and a Half Men S09E16 720p HDTV Nl subs DutchReleaseTeam/Torrent downloaded from Demonoid.me.txt (0 KB)

Comments:


Add report or comment (250 words maximum)

I'd like:  
Type text from captcha: