Our friends

Jambers Het Leven Gaat Voort S01E05 NLVLAAMS XViD-SHOWGEMiST torrent

Torrent info

Date 2012-02-15 07:46:38
Category Series/TV Shows
Hash ecdfa676bba922dd62d16507b95d039b757dbb5c
Seeds / Leechs -1 / -1 refresh
Full size 551 MB
Tracker http://tracker.thepiratebay.org/announce
Tags jambers leven gaat voort s01e05 nlvlaams xvid showgemist

Related torrents

The Invisibles S01E05 HDTV XviD-BiA [eztv]
Ax Men S01E05 HDTV XviD-GNARLY avi
Fear Itself S01E05 HDTV XviD-2HD [eztv]
Psych.S01E05.DVDRip.XviD-TOPAZ

Torrent's content info

Jambers.Het.Leven.Gaat.Voort.S01E05.NLVLAAMS.XViD-SHOWGEMiST.avi

Jambers Het Leven Gaat Voort S01E05 NLVLAAMS XViD-SHOWGEMiST screenshot
  • Screenshot 1
  • Screenshot 2
  • Screenshot 3
  • Screenshot 4
  • Screenshot 5
  • Screenshot 6
  • Screenshot 7
  • Screenshot 8
  • Screenshot 9

Duration: 00:52:33.57, start: 0.000000, bitrate: 1466 kb/s
Stream #0.0: Video: mpeg4, yuv420p, 640x352 [PAR 1:1 DAR 20:11], PAR 22528:22975 DAR 8192:4595, 25 tbr, 25 tbn, 25 tbc
Stream #0.1: Audio: mp3, 48000 Hz, 2 channels, s16, 128 kb/s

Check the movie's sound/language:

Text sample Text sample from Jambers.Het.Leven.Gaat.Voort.S01E05.NLVLAAMS.XViD-SHOWGEMiST.nfo

*******************************************************************************
SHOWGEMiST proudly presents:
*******************************************************************************

Release : Jambers.Het.Leven.Gaat.Voort.S01E05.NL/VLAAMS.XViD-SHOWGEMiST
Filename : Jambers.Het.Leven.Gaat.Voort.S01E05.NL/VLAAMS.XViD-SHOWGEMiST.avi
-------------------------------------------------------------------------------------
Episode Info
In de vijfde aflevering van Jambers, het Leven gaat voort brengt Paul
Jambers het levensverhaal van Eliane. In 1996 bracht hij een eerste
bezoek aan domein Sparrenheuvel, een oud landhuis verscholen in de
bossen. De toen 72-jarige Eliane, de enige dochter van een rijke
familie uit het Leuvense, leefde er temidden van haar dieren: paarden,
twee ezels, enkele katten en vijftien honden. Eliane had vrijwillig
afstand genomen van het mondaine leven dat ze als kind kende. Het deed
haar niets dat het ooit zo prachtige landhuis dat verkocht was op
lijfrente,...

Read full text


Text sample Text sample from SHOWGEMiST @ Twitter.nfo

follow us @ http://twitter.com/#!/ShowGemist




Contents of download:

551 megabyte in 3 files
Jambers Het Leven Gaat Voort S01E05 NLVLAAMS XViD-SHOWGEMiST
  • Jambers.Het.Leven.Gaat.Voort.S01E05.NLVLAAMS.XViD-SHOWGEMiST/Jambers.Het.Leven.Gaat.Voort.S01E05.NLVLAAMS.XViD-SHOWGEMiST.avi (551 MB)
  • Jambers.Het.Leven.Gaat.Voort.S01E05.NLVLAAMS.XViD-SHOWGEMiST/Jambers.Het.Leven.Gaat.Voort.S01E05.NLVLAAMS.XViD-SHOWGEMiST.nfo (3.4 KB)
  • Jambers.Het.Leven.Gaat.Voort.S01E05.NLVLAAMS.XViD-SHOWGEMiST/SHOWGEMiST @ Twitter.nfo (0 KB)

Comments:


Add report or comment (250 words maximum)

I'd like:  
Type text from captcha: